Ссылка на приватное зеркало нашего сайта всего за 1$. Внимание количество ограничено!!!

2 сезон

iTunes

1 сезон

1

2 сезон

2 сезон

iTunes

1 сезон

RePack

30

Ultimate

ВАЖНО

ИГРА 18+

pack

RePack

MK11
pack

Забери бонус

RePack

jed

!!Акция!!

Alien_Rage

RePack

fifa19

RePack

Assassins Creed: Odyssey

RePack

NEED FOR SPEED™ PAYBACK

4 сезон

9 сезон

Бесстыжие 9 сезон

Все сериалы

все сериалы на PB.wtf

RePack

FAR CRY 5
  

Три билборда на границе Эббинга, Миссури / Three Billboards Outside Ebbing, Missouri (Мартин МакДона) [2017, драма, комедия, кримина, BD Remux 1080p] AVO [Яроцкий] +DUB (rus, ukr) [Лицензия] pb.wtf

Три билборда на границе Эббинга, Миссури через торрент pb.wtf

Размер: 28.71 GB | Добавлен: 2 года 9 мес. назад | Торрент скачан:190 раз
Скачать  

19-02-2018 14:40 Три билборда на границе Эббинга, Миссури Скачать торрент  

Три билборда на границе Эббинга, Миссури / Three Billboards Outside Ebbing, Missouri
Год выпуска: 2017
Страна: Великобритания США
Жанр: драма, комедия, криминал
Продолжительность: 01:55:20
Перевод:

#1: Дублированный | Лицензия
#2: Авторский | Михаил Яроцкий

Субтитры: Русские (forced, full), английские

Режиссер: Мартин МакДона

rating

В ролях:

Фрэнсис МакДорманд, Калеб Лэндри Джонс, Керри Кондон, Сэм Рокуэлл, Алехандро Барриос, Джейсон Редфорд, Даррел Бритт-Гибсон

Описание:

Спустя несколько месяцев после убийства дочери Милдред Хейс преступники так и не найдены. Отчаявшаяся женщина решается на смелый шаг, арендуя на въезде в город три биллборда с посланием к авторитетному главе полиции Уильяму Уиллоуби. Когда в ситуацию оказывается втянут ещё и заместитель шерифа, инфантильный маменькин сынок со склонностью к насилию, офицер Диксон, борьба между Милдред и властями города только усугубляется...

Качество: BD Remux 1080p
Формат: MKV

Видео: MPEG-4 AVC, 1920x1080, 27.1 Mbit/s, 23.976 fps
Аудио#1: 48 kHz, DTS, 5.1, 768 Kbps | Дублированный | RUS |
Аудио#2: 48 kHz, DTS-HD MA, 5.1, 3659 Kbps | Авторский (ненорм.) | RUS |
Аудио#3: 48 kHz, AC3, 5.1, 448 Kbps | Дублированный | UKR |
Аудио#4: 48 kHz, DTS-HD MA, 5.1, 3625 Kbps | Оригинал | ENG |
Дата премьеры (мир): 4 сентября 2017
Дата премьеры (РФ): 1 февраля 2018, «Двадцатый Век Фокс СНГ»


Призы Золотой глобус, 2018 год
» Лучшая женская роль (драма) (Фрэнсис МакДорманд)
» Лучшая мужская роль второго плана (Сэм Рокуэлл)
» Лучший фильм (драма)
» Лучший сценарий

скриншот   скриншот   скриншот   скриншот   скриншот  

General
Unique ID : 89717106318091600486884639444523457965 (0x437EE2DB432C1E955453EE65BEF69DAD)
Complete name : C:Video111Three.Billboards.Outside.Ebbing.Missouri.2017.BDREMUX.1080p.ExKinoRay.mkv
Format : Matroska
Format version : Version 4 / Version 2
File size : 28.7 GiB
Duration : 1 h 55 min
Overall bit rate mode : Variable
Overall bit rate : 35.6 Mb/s
Movie name : Three Billboards Outside Ebbing Missouri 2017 from ExKinoRay
Encoded date : UTC 2018-02-19 03:54:00
Writing application : mkvmerge v20.0.0 ('I Am The Sun') 64-bit
Writing library : libebml v1.3.5 + libmatroska v1.4.8

Video
ID : 1
Format : AVC
Format/Info : Advanced Video Codec
Format profile : High@L4.1
Format settings : CABAC / 4 Ref Frames
Format settings, CABAC : Yes
Format settings, ReFrames : 4 frames
Codec ID : V_MPEG4/ISO/AVC
Duration : 1 h 55 min
Bit rate mode : Variable
Bit rate : 27.1 Mb/s
Maximum bit rate : 33.4 Mb/s
Width : 1 920 pixels
Height : 1 080 pixels
Display aspect ratio : 16:9
Frame rate mode : Constant
Frame rate : 23.976 (24000/1001) FPS
Color space : YUV
Chroma subsampling : 4:2:0
Bit depth : 8 bits
Scan type : Progressive
Bits/(Pixel*Frame) : 0.546
Stream size : 21.9 GiB (76%)
Language : English
Default : Yes
Forced : No

Audio #1
ID : 2
Format : DTS
Format/Info : Digital Theater Systems
Codec ID : A_DTS
Duration : 1 h 55 min
Bit rate mode : Constant
Bit rate : 768 kb/s
Channel(s) : 6 channels
Channel positions : Front: L C R, Side: L R, LFE
Sampling rate : 48.0 kHz
Frame rate : 93.750 FPS (512 SPF)
Bit depth : 24 bits
Compression mode : Lossy
Stream size : 634 MiB (2%)
Title : Dub [License]
Language : Russian
Default : Yes
Forced : No

Audio #2
ID : 3
Format : DTS
Format/Info : Digital Theater Systems
Format profile : MA / Core
Codec ID : A_DTS
Duration : 1 h 55 min
Bit rate mode : Variable / Constant
Bit rate : 3 659 kb/s / 1 509 kb/s
Channel(s) : 6 channels
Channel positions : Front: L C R, Side: L R, LFE
Sampling rate : 48.0 kHz
Frame rate : 93.750 FPS (512 SPF)
Bit depth : 24 bits
Compression mode : Lossless / Lossy
Stream size : 2.95 GiB (10%)
Title : AVO [Kyberpunk]
Language : Russian
Default : No
Forced : No

Audio #3
ID : 4
Format : AC-3
Format/Info : Audio Coding 3
Codec ID : A_AC3
Duration : 1 h 55 min
Bit rate mode : Constant
Bit rate : 448 kb/s
Channel(s) : 6 channels
Channel positions : Front: L C R, Side: L R, LFE
Sampling rate : 48.0 kHz
Frame rate : 31.250 FPS (1536 SPF)
Bit depth : 16 bits
Compression mode : Lossy
Delay relative to video : 5 ms
Stream size : 370 MiB (1%)
Title : Dub [License]
Language : Ukrainian
Service kind : Complete Main
Default : No
Forced : No

Audio #4
ID : 5
Format : DTS
Format/Info : Digital Theater Systems
Format profile : MA / Core
Codec ID : A_DTS
Duration : 1 h 55 min
Bit rate mode : Variable / Constant
Bit rate : 3 625 kb/s / 1 509 kb/s
Channel(s) : 6 channels
Channel positions : Front: L C R, Side: L R, LFE
Sampling rate : 48.0 kHz
Frame rate : 93.750 FPS (512 SPF)
Bit depth : 24 bits
Compression mode : Lossless / Lossy
Stream size : 2.92 GiB (10%)
Title : Original
Language : English
Default : No
Forced : No

Text #1
ID : 6
Format : UTF-8
Codec ID : S_TEXT/UTF8
Codec ID/Info : UTF-8 Plain Text
Duration : 2 min 31 s
Bit rate : 7 b/s
Count of elements : 3
Stream size : 137 Bytes (0%)
Title : Forced
Language : Russian
Default : Yes
Forced : No

Text #2
ID : 7
Format : UTF-8
Codec ID : S_TEXT/UTF8
Codec ID/Info : UTF-8 Plain Text
Duration : 1 h 53 min
Bit rate : 77 b/s
Count of elements : 1154
Stream size : 64.1 KiB (0%)
Title : Full
Language : Russian
Default : No
Forced : No

Text #3
ID : 8
Format : UTF-8
Codec ID : S_TEXT/UTF8
Codec ID/Info : UTF-8 Plain Text
Duration : 1 h 46 min
Bit rate : 62 b/s
Count of elements : 1450
Stream size : 48.8 KiB (0%)
Title : Full
Language : English
Default : No
Forced : No

Text #4
ID : 9
Format : UTF-8
Codec ID : S_TEXT/UTF8
Codec ID/Info : UTF-8 Plain Text
Duration : 1 h 49 min
Bit rate : 60 b/s
Count of elements : 1657
Stream size : 48.6 KiB (0%)
Title : SDH
Language : English
Default : No
Forced : No

Text #5
ID : 10
Format : UTF-8
Codec ID : S_TEXT/UTF8
Codec ID/Info : UTF-8 Plain Text
Duration : 1 h 49 min
Bit rate : 68 b/s
Count of elements : 1657
Stream size : 54.9 KiB (0%)
Title : SDH Colored
Language : English
Default : No
Forced : No

Menu
00:00:00.000 : en:Chapter 1
00:05:42.091 : en:Chapter 2
00:08:56.911 : en:Chapter 3
00:12:50.019 : en:Chapter 4
00:19:46.643 : en:Chapter 5
00:23:43.547 : en:Chapter 6
00:27:36.363 : en:Chapter 7
00:31:35.768 : en:Chapter 8
00:35:08.689 : en:Chapter 9
00:40:54.827 : en:Chapter 10
00:44:35.714 : en:Chapter 11
00:49:18.789 : en:Chapter 12
00:55:35.915 : en:Chapter 13
00:59:56.134 : en:Chapter 14
01:04:09.887 : en:Chapter 15
01:10:55.292 : en:Chapter 16
01:15:36.698 : en:Chapter 17
01:23:08.733 : en:Chapter 18
01:27:24.489 : en:Chapter 19
01:35:49.702 : en:Chapter 20
01:40:32.693 : en:Chapter 21
01:44:02.194 : en:Chapter 22
01:46:56.910 : en:Chapter 23
01:49:55.005 : en:Chapter 24

pb.wtf



Скачать Три билборда на границе Эббинга, Миссури через торрент http://img12.lostpic.net/2018/02/19/d6072e0f9e3ba43873fa760aa5d522e7.jpg Скачать фильм Три билборда на границе Эббинга, Миссури через торрент бесплантно в хорошем качестве Описание: Спустя несколько месяцев после убийства дочери Милдред Хейс преступники так и не найдены. Отчаявшаяся женщина решается на смелый ... 10 10 8
Торрент: Зарегистрирован [2018-02-19 14:40] · скачан: 190 раз
Статус: √ проверено
Размер: 28.71 GB
Как cкачать? Как скачать Три билборда на границе Эббинга, Миссури через торрент | qTorrent

% Раздел Тема Автор DL S | L
Фильмы 2017 [DVDrip, WEB-DLRip, HDrip] (DUB, MVO) [ 2.18 GB ] Три билборда на границе Эббинга Миссури / Three Billboards Outside Ebbing Missouri [2017 BDRip] - [] Twi7ter Скачать
2 | 0
R.G. Resident & PiratVoice - Фильмы, Видео [ 933 MB ] Три Билборда на Границе Эббинга Миссури / Three Billboards Outside Ebbing Missouri Фильм о фильме. [2017 BDRip] VO Клерик БЕЗ ЦЕНЗУРЫ + Original + Sub Клерик Скачать
1 | 0
Ultra HD (UHD: 2K, 4K, 8K) — видео сверхвысокой чёткости [ 15.14 GB ] Три билборда на границе Эббинга Миссури / Three Billboards Outside Ebbing Missouri [2017 UHD BDRip 2160p] DUB + AVO sheker187 Скачать
1 | 0
Фильмы 2017 [DVDrip, WEB-DLRip, HDrip] (DUB, MVO) [ 2.67 GB ] Три билборда на границе Эббинга Миссури / Three Billboards Outside Ebbing Missouri [2017 HDRip-AVC] DUB [] AVO [М.Яроцкий] Ukr - ExKinoRay Enigma2010 Скачать
2 | 0
Фильмы (Blu-ray, BD-Remux, HDDVD) [ 36.73 GB ] Три билборда на границе Эббинга Миссури / Three Billboards Outside Ebbing Missouri [2017 кримина BD Remux 1080p] DVO [Кубик в Кубе] +3xAVO+DUB [] bober100 Скачать
1 | 0
Ultra HD (UHD: 2K, 4K, 8K) — видео сверхвысокой чёткости [ 48.85 GB ] Три билборда на границе Эббинга Миссури / Three Billboards Outside Ebbing Missouri [2017 кримина UHD BD Remux 2160p] DVO [Кубик в Кубе] bober100 Скачать
1 | 0
Фильмы [HD 720p, 1080p] (Хороший звук DUB, MVO) [ 15.56 GB ] Три билборда на границе Эббинга Миссури / Three Billboards Outside Ebbing Missouri [2017 BDRip 1080p] [DVO] killermax2013 Скачать
3 | 0

28-11-2019 20:33  

Отключить всю рекламу на сайте

23-02-2018 22:44 Три билборда на границе Эббинга, Миссури Скачать торрент  

Хороший фильм.pb.wtf



26-02-2018 08:27 Три билборда на границе Эббинга, Миссури Скачать торрент  

Стоит посмотреть. 7 из 10 точно заслуживает. pb.wtf



    Дорогой пользователь! Огромная просьба, поблагодарите релизера, оцените раздачу и оставьте свои комментарий, если Вы скачали Три билборда на границе Эббинга, Миссури через торрент бесплатно! Внесите свою лепту в развитие PiratBit!
    Комментировать посты могут только пользователи прошедшие не сложную регистрацию
    Показать сообщения:    

    Три билборда на границе Эббинга, Миссури через торрент
    Скачать бесплатно Три билборда на границе Эббинга, Миссури
    Три билборда на границе Эббинга, Миссури скачать торрент
    Три билборда на границе Эббинга, Миссури смотреть онлайн
    Cкачать фильм Три билборда на границе Эббинга, Миссури бесплатно
    Три билборда на границе Эббинга, Миссури скачать торрент в хорошем качестве
    Три билборда на границе Эббинга, Миссури смотреть онлайн бесплатно в хорошем качестве


    Вы не можете начинать темы
    Вы не можете отвечать на сообщения
    Вы не можете редактировать свои сообщения
    Вы не можете удалять свои сообщения
    Вы не можете голосовать в опросах
    Вы не можете прикреплять файлы к сообщениям
    Вы можете скачивать файлы