Ссылка на приватное зеркало нашего сайта всего за 1$. Внимание количество ограничено!!!

2 сезон

iTunes

1 сезон

1

iTunes

iTunes

iTunes

1 сезон

RePack

30

ИГРА 18+

pack

ВАЖНО

!!Акция!!

Alien_RageХит недели

RePack

MK11
pack

Забери бонус

RePack

jed

!!Акция!!

Alien_Rage

RePack

fifa19

RePack

Assassins Creed: Odyssey

RePack

NEED FOR SPEED™ PAYBACK

4 сезон

9 сезон

Бесстыжие 9 сезон

Все сериалы

все сериалы на PB.wtf

RePack

FAR CRY 5
  

Вольная грамота / Сезон 1 / Серии 1-18 из 18 (Дмитрий Черкасов) [2018, История, мелодрама, HDTVRip] pb.wtf

Вольная грамота через торрент pb.wtf

Размер: 12.98 GB | Добавлен: 2 года 7 мес. назад | Торрент скачан:87 раз
Скачать  

19-02-2018 16:23 Вольная грамота Скачать торрент  

Вольная грамотаГод выпуска: 2018
Страна: Россия
Жанр: История, мелодрама
Продолжительность: 18 х ~ 00:50:00
Перевод: Не требуется
Субтитры: отсутствуют

Режиссер: Дмитрий Черкасов



В ролях:

Татьяна Бабенкова, Артём Крылов, Владислав Абашин, Иван Добронравов, Ксения Разина, Артём Ткаченко, Владислав Ветров, Катарина Шпиринг, Иван Шибанов, Анна Лутцева, Александра Власова, Александр Обласов, Николай Качура, Сергей Барковский, Мария Сокова, Максим Онищенко, Олег Мазуров, Алевтина Полосина, Мария Палей, Александр Рагулин, Владимир Торопов, Маргарита Бычкова, Николай Аверюшкин, Елена Грук-Чернова, Валерий Новиков, Евгения Туркова, Илья Мирошников, Екатерина Ершова, Юрий Сазонов, Никита Барсуков, Елена Петрова, Ольга Рептух, Андрей Бажин, Анатолий Бледный, Ольга Цинк, Александр Савельев, Антон Стреляев, Екатерина Стеблина, Артём Маковский, Ольга Калашникова, Елена Суркова

Описание:

Полина Лебедева, воспитанница бездетного князя Алексея Петровича Головина - самая завидная невеста Ямбургского уезда. Во время бала в честь её именин Алексей Петрович умирает от внезапного сердечного приступа. Это горе – лишь начало тяжёлых испытаний, уготованных девушке судьбой. Полина числится крепостной. Образованная, воспитанная как подобает барышне, она вместе с другими крепостными становится собственностью непутёвого племянника покойного, игрока и пропойцы Сергея Головина. Тот, чтобы покрыть карточные долги, спешно продаёт имение со всем имуществом и крепостными душами соседу и давнему врагу дяди – графу Кречетскому. Уездное общество смотрит теперь на Полину с презрением, жених предаёт, а новый хозяин настойчиво добивается близости...

Качество: HDTVRip
Формат: AVI

Видео: XviD, ~ 1800 Кбит/с, 720x400
Аудио: Русский (AC3, 2 ch, 192 Кбит/с)
скриншот  скриншот  скриншот  

Общее
Полное имя : D:\Volnaja gramota.HDTVRip.GeneralFilm\01.Volnaja gramota.HDTVRip.GeneralFilm.avi
Формат : AVI
Формат/Информация : Audio Video Interleave
Размер файла : 761 Мбайт
Продолжительность : 53 м. 8 с.
Общий поток : 2001 Кбит/сек

Видео
Идентификатор : 0
Формат : MPEG-4 Visual
Профиль формата : Advanced Simple@L5
Параметр BVOP формата : 1
Параметр QPel формата : Нет
Параметр GMC формата : Без точки перехода
Параметр матрицы формата : Выборочная
Идентификатор кодека : XVID
Идентификатор кодека/Подсказка : XviD
Продолжительность : 53 м. 8 с.
Битрейт : 1797 Кбит/сек
Ширина : 720 пикселей
Высота : 400 пикселей
Соотношение сторон : 16:9
Частота кадров : 25,000 кадров/сек
Цветовое пространство : YUV
Субдискретизация насыщенности : 4:2:0
Битовая глубина : 8 бит
Тип развёртки : Прогрессивная
Метод сжатия : С потерями
Бит/(Пиксели*Кадры) : 0.250
Размер потока : 683 Мбайт (90%)
Библиотека кодирования : XviD 73

Аудио
Идентификатор : 1
Формат : AC-3
Формат/Информация : Audio Coding 3
Расширение режима : CM (complete main)
Параметр Endianness формата : Big
Идентификатор кодека : 2000
Продолжительность : 53 м. 8 с.
Вид битрейта : Постоянный
Битрейт : 192 Кбит/сек
Каналы : 2 канала
Расположение каналов : Front: L R
Частота : 48,0 КГц
Частота кадров : 31,250 кадров/сек (1536 spf)
Метод сжатия : С потерями
Размер потока : 73,0 Мбайт (10%)
Выравнивание : Соединение по промежуткам
Продолжительность промежутка : 32 мс. (0,80 видеокадр)

Внимание! Раздача ведётся путём добавления новых серий; при каждом добавлении создаётся новый торрент. Чтобы начать докачку новой серии, пользователям необходимо сделать следующее:
(1) остановить скачивание,
(2) удалить старый торрент у себя из клиента (старые серии удалять не надо),
(3) скачать новый торрент и запустить его у себя в клиенте вместо старого, при этом указать клиенту путь в старую папку куда и должно происходить скачивание новых серий.
Ваш клиент при этом должен произвести хеширование (проверку) старой папки (если не производит сам - помогите ему сделать это), и будет докачивать только те серии которых у вас ещё нет. Старые серии при этом не удаляются, а продолжают раздаваться!
Eсли вы уже удалили старые серии, то предотвратить повторную закачку старых серий можно, отжав галочку в соответствующих местах при запуске нового торрента. По возможности, желательно не удалять старые серии как можно дольше чтобы релизёр не столько продолжал раздавать старые серии, а смог сконцентрироваться на новых.
pb.wtf



Скачать Вольная грамота через торрент http://a.radikal.ru/a17/1802/a2/eb3f4841b786.jpg Скачать фильм Вольная грамота через торрент бесплантно в хорошем качестве Описание: Полина Лебедева, воспитанница бездетного князя Алексея Петровича Головина - самая завидная невеста Ямбургского уезда. Во время ... 10 10 10
Торрент: Зарегистрирован [2018-03-03 09:15] · скачан: 87 раз
Статус: √ проверено
Размер: 12.98 GB
Как cкачать? Как скачать Вольная грамота через торрент | qTorrent

% Раздел Тема Автор DL S | L
Наши сериалы [ 45.87 GB ] Вольная грамота / Сезон: 1 / Серии: 1-18 из 18 [2018 История HDTV 1080i] bober100 Скачать
1 | 0
Наши сериалы [ 23.96 GB ] Вольная грамота / Сезон: 1 / Серии: 1-18 из 18 [2018 История HDTVRip 720p] bober100 Скачать
1 | 0
Наши сериалы [ 14.24 GB ] Вольная грамота / Сезон 1 / Серии 1-18 из 18 [2018 История HDTVRip-AVC ] bober100 Скачать
1 | 0
Наши сериалы [ 21.62 GB ] Вольная грамота / Сезон: 1 / Серии: 1-18 из 18 [2018 История WEB-DL 720p] bober100 Скачать
1 | 0

28-11-2019 20:33  

Отключить всю рекламу на сайте

    Дорогой пользователь! Огромная просьба, поблагодарите релизера, оцените раздачу и оставьте свои комментарий, если Вы скачали Вольная грамота через торрент бесплатно! Внесите свою лепту в развитие PiratBit!
    Комментировать посты могут только пользователи прошедшие не сложную регистрацию
    Показать сообщения:    

    Вольная грамота через торрент
    Скачать бесплатно Вольная грамота
    Вольная грамота скачать торрент
    Вольная грамота смотреть онлайн
    Cкачать фильм Вольная грамота бесплатно
    Вольная грамота скачать торрент в хорошем качестве
    Вольная грамота смотреть онлайн бесплатно в хорошем качестве


    Вы не можете начинать темы
    Вы не можете отвечать на сообщения
    Вы не можете редактировать свои сообщения
    Вы не можете удалять свои сообщения
    Вы не можете голосовать в опросах
    Вы не можете прикреплять файлы к сообщениям
    Вы можете скачивать файлы