Ссылка на приватное зеркало нашего сайта всего за 1$. Внимание количество ограничено!!!

2 сезон

iTunes

1 сезон

1

iTunes

iTunes

iTunes

1 сезон

RePack

30

ИГРА 18+

pack

ВАЖНО

!!Акция!!

Alien_RageХит недели

RePack

MK11
pack

Забери бонус

RePack

jed

!!Акция!!

Alien_Rage

RePack

fifa19

RePack

Assassins Creed: Odyssey

RePack

NEED FOR SPEED™ PAYBACK

4 сезон

9 сезон

Бесстыжие 9 сезон

Все сериалы

все сериалы на PB.wtf

RePack

FAR CRY 5
  

Мститель / Серии 1-4 из 4 (Дмитрий Брусникин) [2013, Детектив, HDTV 1080i] pb.wtf

Мститель через торрент pb.wtf

Размер: 10.74 GB | Добавлен: 2 года 8 мес. назад | Торрент скачан:51 раз
Скачать  

19-02-2018 17:29 Мститель Скачать торрент  

МстительГод выпуска: 2013
Страна: Россия
Жанр: Детектив
Продолжительность: 4 х ~ 00:44:00
Субтитры: отсутствуют

Режиссер: Дмитрий Брусникин

В ролях:

Антон Пампушный, Борис Щербаков, Антон Батырев, Анастасия Панина, Игорь Лагутин

Описание:

Бывший офицер ГРУ Никита Соколов с другом Валерой Осокиным невольно становятся свидетелями убийства дальнобойщика. Преступники решаются расправиться с очевидцами и бросаются за ними в погоню. Выжить в безумной гонке удается лишь Никите. Валера погибает в тот момент, когда бандиты таранят их машину, и она врезается в дерево...

Качество: HDTV 1080i
Формат: MPEG-TS

Видео: MPEG-4 AVC, ~ 8000 Кбит/с, 1920x1080, 25 кадр/с
Аудио: MP2, 2 ch, 192 Кбит/с
скриншот   скриншот   скриншот  

Общее
Идентификатор : 1 (0x1)
Полное имя : D:\Mstitel.2013.HDTV.(1080i).MediaClub\Mstitel.(01.seriya.iz.04).2013.HDTV.(1080i).MediaClub.ts
Формат : MPEG-TS
Размер файла : 2,61 Гбайт
Продолжительность : 44 м. 17 с.
Режим общего битрейта : Переменный
Общий поток : 8434 Кбит/сек

Видео
Идентификатор : 201 (0xC9)
Идентификатор меню : 2201 (0x899)
Формат : AVC
Формат/Информация : Advanced Video Codec
Профиль формата : Main@L4
Параметр CABAC формата : Да
Параметр ReFrames формата : 4 кадра
Идентификатор кодека : 27
Продолжительность : 44 м. 17 с.
Битрейт : 7824 Кбит/сек
Ширина : 1920 пикселей
Высота : 1080 пикселей
Соотношение сторон : 16:9
Частота кадров : 25,000 кадров/сек
Стандарт вещания : Component
Цветовое пространство : YUV
Субдискретизация насыщенности : 4:2:0
Битовая глубина : 8 бит
Тип развёртки : Чересстрочная
Метод сохранения типа развёртки : Раздельные поля
Порядок развёртки : Верхнее поле первое
Бит/(Пиксели*Кадры) : 0.151
Размер потока : 2,42 Гбайт (93%)
Цветовой диапазон : Limited
Основные цвета : BT.709
Характеристики трансфера : BT.709
Коэффициенты матрицы : BT.709

Аудио
Идентификатор : 301 (0x12D)
Идентификатор меню : 2201 (0x899)
Формат : MPEG Audio
Версия формата : Version 1
Профиль формата : Layer 2
Идентификатор кодека : 3
Продолжительность : 44 м. 17 с.
Вид битрейта : Постоянный
Битрейт : 192 Кбит/сек
Каналы : 2 канала
Частота : 48,0 КГц
Метод сжатия : С потерями
Размер потока : 60,8 Мбайт (2%)
Язык : English

pb.wtf



Скачать Мститель через торрент http://pic.kartinco.top/images/6/mry1p.jpg Скачать фильм Мститель через торрент бесплантно в хорошем качестве Описание: Бывший офицер ГРУ Никита Соколов с другом Валерой Осокиным невольно становятся свидетелями убийства дальнобойщика. Преступники ... 10 10 3
Торрент: Зарегистрирован [2018-02-19 17:29] · скачан: 51 раз
Статус: √ проверено
Размер: 10.74 GB
Как cкачать? Как скачать Мститель через торрент | qTorrent

% Раздел Тема Автор DL S | L
Наши сериалы [ 2.15 GB ] Мститель / Серии 1-4 из 4 [2013 HDTVRip] bober100 Скачать
1 | 0
Наши сериалы [ 2.38 GB ] Мститель / Сезон: 1 / Серии: 4 из 4 [2013 SATRip] White Smoke Скачать
1 | 0

28-11-2019 20:33  

Отключить всю рекламу на сайте

    Дорогой пользователь! Огромная просьба, поблагодарите релизера, оцените раздачу и оставьте свои комментарий, если Вы скачали Мститель через торрент бесплатно! Внесите свою лепту в развитие PiratBit!
    Комментировать посты могут только пользователи прошедшие не сложную регистрацию
    Показать сообщения:    

    Мститель через торрент
    Скачать бесплатно Мститель
    Мститель скачать торрент
    Мститель смотреть онлайн
    Cкачать фильм Мститель бесплатно
    Мститель скачать торрент в хорошем качестве
    Мститель смотреть онлайн бесплатно в хорошем качестве


    Вы не можете начинать темы
    Вы не можете отвечать на сообщения
    Вы не можете редактировать свои сообщения
    Вы не можете удалять свои сообщения
    Вы не можете голосовать в опросах
    Вы не можете прикреплять файлы к сообщениям
    Вы можете скачивать файлы