Ссылка на приватное зеркало всего за 1$. Внимание количество ограничено!!!

OK

1+1

iTunes

мы

OK

1

WEB-DLRip

Джокер

Пифагор

Ведьмак / The Witcher сериал

iTunes

ПШазам

ОК

Оно 2

iTunes

30
pack

Вам бонус

ВАЖНО

!!Акция!!

Alien_RageХит недели

RePack

Resident Evil 21

ИГРА 18+

pack

RePack

jed

RePack

fifa19

RePack

Assassins Creed: Odyssey

RePack

NEED FOR SPEED™ PAYBACK

4 сезон

9 сезон

Бесстыжие 9 сезон

Все сериалы

все сериалы на PB.wtf

RePack

FAR CRY 5
  

Полицейский с половиной: Новобранец / Cop and a Half: New Recruit (Джонатан А. Розенбаум) [2017, боевик, комедия, криминал, детектив, приключения, семейный, WEB-DL 720p] DUB [Line] pb.wtf

Полицейский с половиной: Новобранец через торрент pb.wtf

Размер: 3.41 GB | Добавлен: 1 год 11 мес. назад | Торрент скачан:51 раз
Скачать  

19-02-2018 17:58 Полицейский с половиной: Новобранец Скачать торрент  

Полицейский с половиной: Новобранец / Cop and a Half: New RecruitГод выпуска: 2017
Страна: Канада
Жанр: боевик, комедия, криминал, детектив, приключения, семейный
Продолжительность: 01:37:15
Перевод: Дубляж - [Line]
Субтитры: отсутствуют

Режиссер: Джонатан А. Розенбаум

rating

В ролях:

Лу Даймонд Филлипс, Риз Александр, Гленн Бек, Элизабет Бауэн, Майк Коулмэн, Джина Холден, Джанет Киддер, Амитай Мэрморштейн, Кольт Мартин, Джордин Эшли Олсон

Описание:

Не по годам смышлёный ребенок и офицер полиции объединяются, чтобы поймать опасного преступника

Качество: WEB-DL 720p
Формат: MKV
Видео кодек: H.264
Аудио кодек: AC3

Видео: 4633 Кбит/с, 1280x720
Аудио#1: Русский, (AC3, 2 ch, 384 Кбит/с)

скриншот  скриншот  скриншот  

Общее
Уникальный идентификатор : 230984269206013114523976321771753033724 (0xADC5F3BB29A7601FA4BDA9A7C15DCFFC)
Полное имя : D:\Cop.and.a.Half.New.Recruit.2017.D.WEB-DL.72Op_KOSHARA.mkv
Формат : Matroska
Версия формата : Version 2
Размер файла : 3,41 Гбайт
Продолжительность : 1 ч. 37 м.
Режим общего битрейта : Переменный
Общий поток : 5019 Кбит/сек
Дата кодирования : UTC 2018-02-19 13:58:50
Программа кодирования : mkvmerge v8.3.0 ('Over the Horizon') 64bit
Библиотека кодирования : libebml v1.3.1 + libmatroska v1.4.2

Видео
Идентификатор : 1
Формат : AVC
Формат/Информация : Advanced Video Codec
Профиль формата : High@L4.1
Параметр CABAC формата : Да
Параметр ReFrames формата : 4 кадра
Идентификатор кодека : V_MPEG4/ISO/AVC
Продолжительность : 1 ч. 37 м.
Вид битрейта : Переменный
Битрейт : 4633 Кбит/сек
Максимальный битрейт : 5000 Кбит/сек
Ширина : 1280 пикселей
Высота : 720 пикселей
Соотношение сторон : 16:9
Режим частоты кадров : Постоянный
Частота кадров : 23,976 (24000/1001) кадра/сек
Стандарт вещания : Component
Цветовое пространство : YUV
Субдискретизация насыщенности : 4:2:0
Битовая глубина : 8 бит
Тип развёртки : Прогрессивная
Бит/(Пиксели*Кадры) : 0.205
Размер потока : 3,08 Гбайт (90%)
Default : Да
Forced : Нет
Цветовой диапазон : Limited
Основные цвета : BT.709
Характеристики трансфера : BT.709
Коэффициенты матрицы : BT.709

Аудио
Идентификатор : 2
Формат : AC-3
Формат/Информация : Audio Coding 3
Расширение режима : CM (complete main)
Параметр Endianness формата : Big
Идентификатор кодека : A_AC3
Продолжительность : 1 ч. 37 м.
Вид битрейта : Постоянный
Битрейт : 384 Кбит/сек
Каналы : 2 канала
Расположение каналов : Front: L R
Частота : 48,0 КГц
Частота кадров : 31,250 кадров/сек (1536 spf)
Метод сжатия : С потерями
Размер потока : 267 Мбайт (8%)
Default : Да
Forced : Нет

pb.wtf



Скачать Полицейский с половиной: Новобранец через торрент http://img12.lostpic.net/2018/02/19/84e98ca716d9c164de9e8cc2953a1e28.jpg Скачать фильм Полицейский с половиной: Новобранец через торрент бесплантно в хорошем качестве Описание: Не по годам смышлёный ребенок и офицер полиции объединяются, чтобы поймать опасного ... 10 10 3
Торрент: Зарегистрирован [2018-02-19 17:58] · скачан: 51 раз
Статус: T временная
Размер: 3.41 GB
Как cкачать? Как скачать Полицейский с половиной: Новобранец через торрент | qTorrent

% Раздел Тема Автор DL S | L
T Фильмы (мультфильмы) cо спонсором показа (Новинки AVI/MKV) [ 1.37 GB ] Полицейский с половиной: Новобранец / Cop and a Half: New Recruit [2017 WEB-DLRip] DUB [Line] bober100 Скачать
1 | 0

28-11-2019 20:33  

Отключить всю рекламу на сайте

    Дорогой пользователь! Огромная просьба, поблагодарите релизера, оцените раздачу и оставьте свои комментарий, если Вы скачали Полицейский с половиной: Новобранец через торрент бесплатно! Внесите свою лепту в развитие PiratBit!
    Комментировать посты могут только пользователи прошедшие не сложную регистрацию
    Показать сообщения:    

    Полицейский с половиной: Новобранец через торрент
    Скачать бесплатно Полицейский с половиной: Новобранец
    Полицейский с половиной: Новобранец скачать торрент
    Полицейский с половиной: Новобранец смотреть онлайн
    Cкачать фильм Полицейский с половиной: Новобранец бесплатно
    Полицейский с половиной: Новобранец скачать торрент в хорошем качестве
    Полицейский с половиной: Новобранец смотреть онлайн бесплатно в хорошем качестве


    Вы не можете начинать темы
    Вы не можете отвечать на сообщения
    Вы не можете редактировать свои сообщения
    Вы не можете удалять свои сообщения
    Вы не можете голосовать в опросах
    Вы не можете прикреплять файлы к сообщениям
    Вы можете скачивать файлы