новый адрес
Мега распродажа FORZA HORIZON 4 ULTIMATE+ВСЕ DLC+ОНЛАЙН всего за 499р. 349 руб. (супер цена). Внимание количество ограничено!!!

iTunes

1+1

iTunes

мы

iTunes

1

iTunes

Чернобыль

iTunes

Ральф против интернета

Лицензия

ПШазам

Лицензия

Игра престолов

Лицензия

30
pack

ВАЖНО

!!Акция!!

Alien_RageХит недели

RePack

Resident Evil 21

ИГРА 18+

pack

RePack

Metro:Exodus

!!Акция!!

Alien_Rage

RePack

fifa19

RePack

Assassins Creed: Odyssey

RePack

NEED FOR SPEED™ PAYBACK

3 сезон

9 сезон

Бесстыжие 9 сезон

Все сериалы

все сериалы на PB.wtf

RePack

FAR CRY 5
Ребята, катастрофически не хватает 1900р. для оплаты серверов за Октябрь (всвязи с блокировками трафик упал в 3 раза), 1-2р., выручайте.
  

У матросов нет вопросов (Владимир Роговой) [1980, СССР, комедия, DVDRip-AVC] - ExKinoRay pb.wtf

У матросов нет вопросов через торрент pb.wtf

Размер: 1.37 GB | Добавлен: 1 год 8 мес. назад | Торрент скачан:32 раза
Скачать  

19-02-2018 18:26 У матросов нет вопросов Скачать торрент  

У матросов нет вопросов!

Год выхода: 1980
Жанр: Комедия
Режиссер: Владимир Роговой
В ролях: Наталья Казначеева, Вадим Андреев, Татьяна Пельтцер, Михаил Пуговкин, Николай Денисов, Людмила Хитяева, Вадим Захарченко, Юрий Саранцев, Евгения Ханаева, Георгий Юматов, Валентина Владимирова.

Описание: Алька Шанина и Саня Фокин познакомились в самолете. Алька собиралась поступать в театральный институт, а Саня, матрос рыболовецкого сейнера, направлялся через столицу в родную деревню на свадьбу. Из-за непогоды самолет совершил вынужденную посадку. В течении трех дней произошло множество разнообразных событий и герои полюбили друг друга.

rating

Выпущено: СССР, к/ст имени М.Горького
Продолжительность: 01:21:10
Язык: русский

Файл
Формат: MKV
Качество: DVDRip-AVC
Видео: AVC, 704x550 (1.28:1), 25.000 fps, ~2153 Kbps (0.222 bit/pixel)
Аудио #1: AC-3, 48.0 KHz, 2.0 ch, 256 Kbps, CBR
General
Unique ID : 200680726799887857624830837611466190836 (0x96F9B3BCDC3E090BB8FCE28891D9EFF4)
Complete name : D:\Y.matrosov.net.voprosov.1980.DVDRip.AVC.ExKinoRay.mkv
Format : Matroska
Format version : Version 2
File size : 1.37 GiB
Duration : 1 h 21 min
Overall bit rate : 2 411 kb/s
Movie name : У матросов нет вопросов (1980) from ExKinoRay
Encoded date : UTC 2018-02-19 16:51:39
Writing application : mkvmerge v5.6.0 ('Kenya Kane') built on May 27 2012 16:44:04
Writing library : libebml v1.2.3 + libmatroska v1.3.0

Video
ID : 1
Format : AVC
Format/Info : Advanced Video Codec
Format profile : High@L4.1
Format settings, CABAC : Yes
Format settings, ReFrames : 12 frames
Codec ID : V_MPEG4/ISO/AVC
Duration : 1 h 21 min
Bit rate : 2 153 kb/s
Width : 704 pixels
Height : 550 pixels
Display aspect ratio : 1.280
Frame rate mode : Constant
Frame rate : 25.000 FPS
Color space : YUV
Chroma subsampling : 4:2:0
Bit depth : 8 bits
Scan type : Progressive
Bits/(Pixel*Frame) : 0.222
Stream size : 1.19 GiB (87%)
Title : Enigma
Writing library : x264 core 152 r2851 ba24899
Encoding settings : cabac=1 / ref=12 / deblock=1:-2:-2 / analyse=0x3:0x133 / me=umh / subme=10 / psy=1 / psy_rd=1.00:0.00 / mixed_ref=1 / me_range=32 / chroma_me=1 / trellis=2 / 8x8dct=1 / cqm=0 / deadzone=21,11 / fast_pskip=0 / chroma_qp_offset=-2 / threads=12 / lookahead_threads=3 / sliced_threads=0 / nr=0 / decimate=0 / interlaced=0 / bluray_compat=0 / constrained_intra=0 / bframes=10 / b_pyramid=2 / b_adapt=2 / b_bias=0 / direct=3 / weightb=1 / open_gop=0 / weightp=2 / keyint=250 / keyint_min=25 / scenecut=40 / intra_refresh=0 / rc_lookahead=40 / rc=2pass / mbtree=0 / bitrate=2153 / ratetol=1.0 / qcomp=0.60 / qpmin=0 / qpmax=51 / qpstep=4 / cplxblur=20.0 / qblur=0.5 / vbv_maxrate=50000 / vbv_bufsize=62500 / nal_hrd=none / filler=0 / ip_ratio=1.40 / pb_ratio=1.30 / aq=1:1.00
Default : Yes
Forced : No
Color range : Limited
Color primaries : BT.601 PAL
Transfer characteristics : BT.470 System B, BT.470 System G
Matrix coefficients : BT.601

Audio
ID : 2
Format : AC-3
Format/Info : Audio Coding 3
Mode extension : CM (complete main)
Format settings, Endianness : Big
Codec ID : A_AC3
Duration : 1 h 21 min
Bit rate mode : Constant
Bit rate : 256 kb/s
Channel(s) : 2 channels
Channel positions : Front: L R
Sampling rate : 48.0 kHz
Frame rate : 31.250 FPS (1536 spf)
Compression mode : Lossy
Stream size : 149 MiB (11%)
Language : Russian
Default : Yes
Forced : No
Релиз от:

Автор релиза: pb.wtf



Скачать У матросов нет вопросов через торрент http://lostpic.net/images/b79eaff9dac550656a41baa29752d80c.png Скачать фильм У матросов нет вопросов через торрент бесплантно в хорошем качестве Описание: Алька Шанина и Саня Фокин познакомились в самолете. Алька собиралась поступать в театральный институт, а Саня, матрос ... 10 10 3
Info! Золотая раздача, скачанное не засчитывается.
Торрент: Зарегистрирован [2018-02-19 18:26] · скачан: 32 раз
Статус: √ проверено
Размер: 1.37 GB
Как cкачать? Как скачать У матросов нет вопросов через торрент | qTorrent


>> Регистрируемся здесь <<






Отзывы и комментарии о схеме читаем и пишем здесь: ---> Отзывы и комментарии о схеме

Новые благодарочки в телеграм довольных пользователей:
скриншот   скриншот   скриншот   скриншот   скриншот
    Дорогой пользователь! Огромная просьба, поблагодарите релизера, оцените раздачу и оставьте свои комментарий, если Вы скачали У матросов нет вопросов через торрент бесплатно! Внесите свою лепту в развитие PiratBit!
    Комментировать посты могут только пользователи прошедшие не сложную регистрацию
    Показать сообщения:    

    У матросов нет вопросов через торрент
    Скачать бесплатно У матросов нет вопросов
    У матросов нет вопросов скачать торрент
    У матросов нет вопросов смотреть онлайн
    Cкачать фильм У матросов нет вопросов бесплатно
    У матросов нет вопросов скачать торрент в хорошем качестве
    У матросов нет вопросов смотреть онлайн бесплатно в хорошем качестве


    Вы не можете начинать темы
    Вы не можете отвечать на сообщения
    Вы не можете редактировать свои сообщения
    Вы не можете удалять свои сообщения
    Вы не можете голосовать в опросах
    Вы не можете прикреплять файлы к сообщениям
    Вы можете скачивать файлы