Ссылка на приватное зеркало нашего сайта всего за 1$. Внимание количество ограничено!!!

2 сезон

iTunes

1 сезон

1

2 сезон

2 сезон

iTunes

1 сезон

RePack

30

Новинка

ВАЖНО

ИГРА 18+

pack

RePack

MK11
pack

Забери бонус

RePack

jed

!!Акция!!

Alien_Rage

RePack

fifa19

RePack

Assassins Creed: Odyssey

RePack

NEED FOR SPEED™ PAYBACK

4 сезон

9 сезон

Бесстыжие 9 сезон

Все сериалы

все сериалы на PB.wtf

RePack

FAR CRY 5
  

Видоизмененный углерод / Altered Carbon / Сезон: 1 / Серия: 1-10 из 10 (Ута Бризвитц, Питер Хор, Ник Харран) [2018, фантастика, WEBRip 1080p] [MVO] (FocusStudio) pb.wtf

Видоизмененный углерод через торрент pb.wtf

Размер: 46.17 GB | Добавлен: 2 года 9 мес. назад | Торрент скачан:31 раз
Скачать  

19-02-2018 19:05 Видоизмененный углерод Скачать торрент  

ВИДОИЗМЕНЕННЫЙ УГЛЕРОДAltered Carbon Год выпуска: 2018
Страна: США
Жанр: Фантастика, боевик
Продолжительность: ~00:58:00
Перевод: Профессиональный (многоголосый закадровый) FocusStudio


Режиссёр: Мигель Сапочник

В ролях: Николь Энтони, Лиза Чандлер, Кори Четирбок, Саймон Чин, Крис Коннер, Глайнис Дейвис, Ато Эссонда, Марлин Форте, Рене Голдсберри, Тич Грант

Описание: Действие «Altered Carbon» происходит в 25 веке истории человечества. Учёные научились полностью оцифровывать человеческий разум. Как следствие, та субстанция, которую мы называем «душой», запросто перемещается из одного тела, пришедшего в негодность, в новенькое. Главного героя «Изменённого углерода» зовут Такеши Ковач, он бывший элитный межзвёздный воин, известный как Посланник.

Такеши приговорён к тюремном сроку длительностью в 500 лет. Его «загружают» в будущее, против которого он боролся. Если Ковачу удастся совершить хотя бы одно убийство в новом мире, где научные технологии превратили само понятие «смерть» в нечто устаревшее, он на деле станет Посланником. Ведь тогда он не только получит шанс на новую жизнь на Земле – он в одиночку изменит течение Истории.



Качество: WEBRip 1080p
Формат: MKV
Видео: 1920x960 (16:9), 23.976 fps, MPEG-4 AVC ~11000 kbps
Аудио: AC3, 48 kHz, 6 ch, 448 kbps - FocusStudio
Аудио: AC3, 48 kHz, 6 ch, 448 kbps - Eng

Субтитры: отсутствуют
General
Unique ID : 179183137454408713983450687587205608827 (0x86CD6AC033B727F080D9575818AD757B)
Complete name : Altered.Carbon.S01.WEBRip.1080p.FocusStudio/Altered.Carbon.S01E01.WEBRip.1080p.FocusStudio.mkv
Format : Matroska
Format version : Version 4 / Version 2
File size : 5.19 GiB
Duration : 58 min 53 s
Overall bit rate : 12.6 Mb/s
Movie name : Altered Carbon 1x01 @ FocusStudio
Encoded date : UTC 2018-02-19 12:15:20
Writing application : mkvmerge v20.0.0 ('I Am The Sun') 64-bit
Writing library : libebml v1.3.5 + libmatroska v1.4.8

Video
ID : 1
Format : AVC
Format/Info : Advanced Video Codec
Format profile : High@L4.1
Format settings : CABAC / 4 Ref Frames
Format settings, CABAC : Yes
Format settings, ReFrames : 4 frames
Codec ID : V_MPEG4/ISO/AVC
Duration : 58 min 53 s
Bit rate : 11.5 Mb/s
Width : 1 920 pixels
Height : 960 pixels
Display aspect ratio : 2.000
Frame rate mode : Constant
Frame rate : 23.976 (24000/1001) FPS
Color space : YUV
Chroma subsampling : 4:2:0
Bit depth : 8 bits
Scan type : Progressive
Bits/(Pixel*Frame) : 0.259
Stream size : 4.72 GiB (91%)
Writing library : x264 core 152 r2851kMod ba24899
Encoding settings : cabac=1 / ref=4 / deblock=1:-3:-3 / analyse=0x3:0x133 / me=umh / subme=10 / psy=1 / fade_compensate=0.00 / psy_rd=1.00:0.00 / mixed_ref=1 / me_range=48 / chroma_me=1 / trellis=2 / 8x8dct=1 / cqm=0 / deadzone=21,11 / fast_pskip=0 / chroma_qp_offset=-2 / threads=12 / lookahead_threads=2 / sliced_threads=0 / nr=0 / decimate=0 / interlaced=0 / bluray_compat=0 / constrained_intra=0 / bframes=8 / b_pyramid=2 / b_adapt=2 / b_bias=0 / direct=3 / weightb=1 / open_gop=0 / weightp=2 / keyint=250 / keyint_min=23 / scenecut=40 / intra_refresh=0 / rc=crf / mbtree=0 / crf=17.0000 / qcomp=0.60 / qpmin=0 / qpmax=69 / qpstep=4 / ip_ratio=1.30 / pb_ratio=1.20 / aq=3:0.80
Language : English
Default : Yes
Forced : No

Audio #1
ID : 2
Format : AC-3
Format/Info : Audio Coding 3
Codec ID : A_AC3
Duration : 58 min 53 s
Bit rate mode : Constant
Bit rate : 448 kb/s
Channel(s) : 6 channels
Channel positions : Front: L C R, Side: L R, LFE
Sampling rate : 48.0 kHz
Frame rate : 31.250 FPS (1536 SPF)
Bit depth : 16 bits
Compression mode : Lossy
Stream size : 189 MiB (4%)
Title : MVO FocusStudio
Language : Russian
Service kind : Complete Main
Default : Yes
Forced : No

Audio #2
ID : 3
Format : AC-3
Format/Info : Audio Coding 3
Codec ID : A_AC3
Duration : 58 min 53 s
Bit rate mode : Constant
Bit rate : 448 kb/s
Channel(s) : 6 channels
Channel positions : Front: L C R, Side: L R, LFE
Sampling rate : 48.0 kHz
Frame rate : 31.250 FPS (1536 SPF)
Bit depth : 16 bits
Compression mode : Lossy
Stream size : 189 MiB (4%)
Language : English
Service kind : Complete Main
Default : No
Forced : No
pb.wtf



Скачать Видоизмененный углерод через торрент http://i100.fastpic.ru/big/2018/0203/5e/d46c0953e71cbe985afbac300afbcc5e.png Скачать фильм Видоизмененный углерод через торрент бесплантно в хорошем качестве Описание: Действие «Altered Carbon» происходит в 25 веке истории человечества. Учёные научились полностью оцифровывать человеческий разум. ... 10 10 2
Торрент: Зарегистрирован [2018-02-19 19:05] · скачан: 31 раз
Статус: √ проверено
Размер: 46.17 GB
Как cкачать? Как скачать Видоизмененный углерод через торрент | qTorrent

% Раздел Тема Автор DL S | L
Зарубежные сериалы [ 39.97 GB ] Видоизменённый углерод / Altered Carbon / Сезон: 2 / Серии: 1-8 из 8 [2020 WEBRip 1080p] 2xMVO [NewStudio LostFilm] bober100 Скачать
4 | 0
Зарубежные сериалы [ 14.08 GB ] Видоизменённый углерод / Altered Carbon / Сезон: 2 / Серии: 1-8 из 8 [2020 WEBRip 1080p] MVO [Jaskier] bober100 Скачать
4 | 0
Зарубежные сериалы [ 14.24 GB ] Видоизмененный углерод / Altered Carbon / Сезон: 2 / Серия: 1-8 из 8 [2020 WEB-DL 1080p] [MVO] killermax2013 Скачать
2 | 0
Зарубежные сериалы [ 15.15 GB ] Видоизменённый углерод / Altered Carbon / Сезон: 2 / Серии: 1-8 из 8 [2020 WEB-DL 1080p] MVO [LostFilm] bober100 Скачать
1 | 0
Зарубежные сериалы [ 35.72 GB ] Видоизменённый углерод / Altered Carbon / Сезон: 2 / Серии: 1-8 из 8 [2020 WEBRip 1080p] DVO [Gears Media] bober100 Скачать
1 | 0
Фильмы без перевода [ 14.09 GB ] Видоизмененный углерод / Altered Carbon / Сезон: 2 / Серия: 1-8 из 8 [2020 WEBRip 1080p] [Multi Subs] killermax2013 Скачать
1 | 0
Зарубежные сериалы [ 17.34 GB ] Видоизмененный углерод / Altered Carbon / Сезон: 1 / Серия: 1-10 из 10 [2018 WEBRip 1080p] [MVO] killermax2013 Скачать
2 | 0

28-11-2019 20:33  

Отключить всю рекламу на сайте

    Дорогой пользователь! Огромная просьба, поблагодарите релизера, оцените раздачу и оставьте свои комментарий, если Вы скачали Видоизмененный углерод через торрент бесплатно! Внесите свою лепту в развитие PiratBit!
    Комментировать посты могут только пользователи прошедшие не сложную регистрацию
    Показать сообщения:    

    Видоизмененный углерод через торрент
    Скачать бесплатно Видоизмененный углерод
    Видоизмененный углерод скачать торрент
    Видоизмененный углерод смотреть онлайн
    Cкачать фильм Видоизмененный углерод бесплатно
    Видоизмененный углерод скачать торрент в хорошем качестве
    Видоизмененный углерод смотреть онлайн бесплатно в хорошем качестве


    Вы не можете начинать темы
    Вы не можете отвечать на сообщения
    Вы не можете редактировать свои сообщения
    Вы не можете удалять свои сообщения
    Вы не можете голосовать в опросах
    Вы не можете прикреплять файлы к сообщениям
    Вы можете скачивать файлы