Ссылка на приватное зеркало нашего сайта всего за 1$. Внимание количество ограничено!!!

2 сезон

iTunes

1 сезон

1

iTunes

iTunes

iTunes

1 сезон

RePack

30

ИГРА 18+

pack

ВАЖНО

!!Акция!!

Alien_RageХит недели

RePack

MK11
pack

Забери бонус

RePack

jed

!!Акция!!

Alien_Rage

RePack

fifa19

RePack

Assassins Creed: Odyssey

RePack

NEED FOR SPEED™ PAYBACK

4 сезон

9 сезон

Бесстыжие 9 сезон

Все сериалы

все сериалы на PB.wtf

RePack

FAR CRY 5
  

Кровавая барыня / Сезон: 1 / Серии: 1-16 из 16 (Егор Анашкин) [2018, Драма, история, HDTVRip] pb.wtf

Кровавая барыня через торрент pb.wtf

Размер: 10.15 GB | Добавлен: 2 года 7 мес. назад | Торрент скачан:243 раза
Скачать  

19-02-2018 21:55 Кровавая барыня Скачать торрент  

Кровавая барыня Год выпуска: 2018
Страна: Россия
Жанр: Драма, история
Продолжительность: ~00:52:00
Субтитры: отсутствуют

Режиссер: Егор Анашкин



В ролях:

Юлия Снигирь, Кристина Бабушкина, Северия Янушаускайте, Фёдор Лавров, Влад Соколовский, Юрий Цурило, Даниил Муравьев-Изотов, Пётр Рыков, Марта Тимофеева, Игорь Ясулович, Анна Гуляренко, Екатерина Копанова, Анастасия Зенкович, Валентин Варецкий, Михаил Васьков, Юрий Шлыков, Лилия Пысларь, Сергей Шеховцов

Описание:

Восемнадцатый век. Российская Империя. Загадка судьбы единственной в истории России женщины — серийной убийцы. Высокородная столбовая дворянка Дарья Салтыкова оказалась безжалостной преступницей. Молодая набожная вдова превратилась в «мучительницу и душегубицу». Но не властолюбие и жестокость привели Салтыкову на плаху… Дарья была одержима страстью к Сергею Салтыкову — первому фавориту императрицы Екатерины Второй

Качество: HDTVRip
Формат: AVI
Видео кодек: XviD
Аудио кодек: AC3

Видео: 720x304 (2.37:1), 25 fps, XviD ~1500 kbps, 0.28 bit/pixel
Аудио: 48 kHz, AC3 Dolby Digital, 2/0 (L,R) ch, ~192 kbps
скриншот   скриншот   скриншот   скриншот  

Общее
Полное имя : D:\Krovavaya.barynya.2017.HDTVRip.Files-x\01.Krovavaya.barynya.2017.HDTVRip.Files-x.avi
Формат : AVI
Формат/Информация : Audio Video Interleave
Размер файла : 652 Мбайт
Продолжительность : 52 м. 7 с.
Общий поток : 1749 Кбит/сек
Программа кодирования : VirtualDubMod 1.5.10.3 | www.virtualdub-fr.org || (build 2550/release)
Библиотека кодирования : VirtualDubMod build 2550/release

Видео
Идентификатор : 0
Формат : MPEG-4 Visual
Профиль формата : Advanced Simple@L5
Параметр BVOP формата : 1
Параметр QPel формата : Нет
Параметр GMC формата : Без точки перехода
Параметр матрицы формата : Выборочная
Идентификатор кодека : XVID
Идентификатор кодека/Подсказка : XviD
Продолжительность : 52 м. 7 с.
Битрейт : 1547 Кбит/сек
Ширина : 720 пикселей
Высота : 304 пикселя
Соотношение сторон : 2,35:1
Частота кадров : 25,000 кадров/сек
Цветовое пространство : YUV
Субдискретизация насыщенности : 4:2:0
Битовая глубина : 8 бит
Тип развёртки : Прогрессивная
Метод сжатия : С потерями
Бит/(Пиксели*Кадры) : 0.283
Размер потока : 577 Мбайт (88%)
Библиотека кодирования : XviD 73

Аудио
Идентификатор : 1
Формат : AC-3
Формат/Информация : Audio Coding 3
Расширение режима : CM (complete main)
Параметр Endianness формата : Big
Идентификатор кодека : 2000
Продолжительность : 52 м. 7 с.
Вид битрейта : Постоянный
Битрейт : 192 Кбит/сек
Каналы : 2 канала
Расположение каналов : Front: L R
Частота : 48,0 КГц
Частота кадров : 31,250 кадров/сек (1536 spf)
Метод сжатия : С потерями
Размер потока : 71,6 Мбайт (11%)
Выравнивание : Разделение по промежуткам
Продолжительность промежутка : 40 мс. (1,00 видеокадр)
Время предзагрузки промежутка : 500 мс.

Когда раздача ведётся путём добавления новых серий, при каждом добавлении создётся новый торрент. Чтобы начать докачку новой серии, пользователям необходимо сделать следующее:
(1) остановить скачивание,
(2) удалить старый торрент у себя из клиента (старые серии удалять не надо),
(3) скачать новый торрент и запустить его у себя в клиенте вместо старого, при этом указать клиенту путь в старую папку, куда и должно происходить скачивание новых серий.
Ваш клиент при этом должен произвести хеширование (проверку) старой папки (если не производит сам - помогите ему сделать это), и будет докачивать только те серии, которых у вас ещё нет. Старые серии при этом не удаляются, а продолжают раздаваться!
Eсли вы уже удалили старые серии, то предотвратить повторную закачку старых серий можно, отжав галочку в соответсвующих местах при запуске нового торрента. По возможности, желательно не удалять старые серии как можно дольше, чтобы релизёр не столько продолжал раздавать старые серии, а смог сконцентрироваться на новых.
pb.wtf



Скачать Кровавая барыня через торрент http://i99.fastpic.ru/big/2018/0219/c5/8e031c16640d16784cef04a3e0909cc5.png Скачать фильм Кровавая барыня через торрент бесплантно в хорошем качестве Описание: Восемнадцатый век. Российская Империя. Загадка судьбы единственной в истории России женщины — серийной убийцы. Высокородная ... 9.7 10 23
Торрент: Зарегистрирован [2018-03-02 04:55] · скачан: 243 раз
Статус: √ проверено
Размер: 10.15 GB
Как cкачать? Как скачать Кровавая барыня через торрент | qTorrent

% Раздел Тема Автор DL S | L
Наши сериалы [ 41.38 GB ] Кровавая барыня Сезон 1 / [2018 история HDTV 1080p] [Русский] Generalfilm White Smoke Скачать
1 | 0
Наши сериалы [ 12.61 GB ] Кровавая барыня / Сезон: 1 / Серии: 1-16 из 16 [2018 история HDTVRip-AVC] bober100 Скачать
1 | 0
Наши сериалы [ 21.23 GB ] Кровавая барыня / Сезон: 1 / Серии: 1-16 из 16 [2018 история HDTVRip 720p] bober100 Скачать
1 | 0


Последний раз редактировалось: bober100 (2018-03-02 04:55), всего редактировалось 1 раз

28-11-2019 20:33  

Отключить всю рекламу на сайте

01-03-2018 16:57 Кровавая барыня Скачать торрент  

где последние серии? меня жена пилит)pb.wtf



02-03-2018 18:48 Кровавая барыня Скачать торрент  

Простой4767 писал(а):

где последние серии? меня жена пилит)

Добавил.pb.wtf



20-03-2018 16:09 Кровавая барыня Скачать торрент  

Зацепил.Смотрим.pb.wtf



    Дорогой пользователь! Огромная просьба, поблагодарите релизера, оцените раздачу и оставьте свои комментарий, если Вы скачали Кровавая барыня через торрент бесплатно! Внесите свою лепту в развитие PiratBit!
    Комментировать посты могут только пользователи прошедшие не сложную регистрацию
    Показать сообщения:    

    Кровавая барыня через торрент
    Скачать бесплатно Кровавая барыня
    Кровавая барыня скачать торрент
    Кровавая барыня смотреть онлайн
    Cкачать фильм Кровавая барыня бесплатно
    Кровавая барыня скачать торрент в хорошем качестве
    Кровавая барыня смотреть онлайн бесплатно в хорошем качестве


    Вы не можете начинать темы
    Вы не можете отвечать на сообщения
    Вы не можете редактировать свои сообщения
    Вы не можете удалять свои сообщения
    Вы не можете голосовать в опросах
    Вы не можете прикреплять файлы к сообщениям
    Вы можете скачивать файлы