Доктор Стрэндж

Лицензия

Добыча

MVO

Дом дракона

1 сезон

Тор

Лицензия

Мэверик

Лицензия

Там, где раки поют

MVO

Властелин колец

1 сезон

Ultimate

pack

Рекомендуем

30

Repack

ВАЖНО

ВАЖНО

Ghostwire

RePack

jed

RePack

nioh2

RePack

RDR2

RePack

NEED FOR SPEED™ PAYBACK

RePack

скачать торрент

Кинопоиск HD

Острые козырьки 6 сезон

6 сезон

FAR CRY 6

RePack

скачать торрент

Лицензия

скачать торрент

MVO

1

1 сезон

скачать торрент

1 сезон

скачать торрент

Лицензия

  

Скиф (Рустам Мосафир) [2018, драма, история, фэнтези, боевик, приключения, WEB-DL 720p] [iTunes]

Скиф через торрент pb.wtf

Размер: 3.06 GB | Добавлен: 4 года 7 мес. назад | Торрент скачан:504 раза
Смотреть онлайн | Скачать   

20-02-2018 01:57 Скиф Скачать торрент  

СкифГод выпуска: 2018
Страна: Россия
Жанр: драма, история, фэнтези, боевик, приключения
Продолжительность: 01:40:09
Перевод: Не требуется Русский - iTunes
Субтитры: отсутствуют

Режиссер: Рустам Мосафир



В ролях:

Алексей Фаддеев, Виталий Кравченко, Александр Кузнецов, Александр Пацевич, Юрий Цурило, Андрей Пермяков, Василиса Измайлова, Алексей Овсянников, Фёдор Рощин, Рустам Мосафир

Описание:

Действие фильма происходит во время смены цивилизаций. В Евразии начинается новая эра. Ушли в небытие гордые воины - скифы, их вымирающие потомки превратились в безжалостных наемных убийц, «волков Ареса». Ратнику Лютобору предстоит тяжелое испытание. Втянутый в междоусобные интриги он отправляется в опасный путь ради спасения семьи, а его проводником становится пленный скиф Куница. Они - враги и молятся разным богам, но вынуждены идти вместе. Через дикий степной мир к пристанищу последних скифов, где их ждет почти неминуемая смерть...

Качество: WEB-DL 720p
Формат: MKV
Видео кодек: H.264
Аудио кодек: AC3

Видео: [email protected] (2.40:1), 25 fps, MPEG-4 AVC ~ 3987 kbps avg, 0.310 bit/pixel
Аудио: AC3, 48 kHz, 6 ch, ~384.00 kbps avg | русский |iTunes
скриншот   скриншот   скриншот   скриншот   скриншот   скриншот  

Общее
Уникальный идентификатор : 221248012349242777797919762023955621006 (0xA672D134CD8278F6BC4D16B65BB8E48E)
Полное имя : D:TorrentsЗавершенныеSKIF_WEB_DL_72Op.mkv
Формат : Matroska
Версия формата : Version 2
Размер файла : 3,06 Гбайт
Продолжительность : 1 ч. 40 м.
Общий поток : 4373 Кбит/сек
Дата кодирования : UTC 2018-02-19 19:33:02
Программа кодирования : mkvmerge v8.3.0 ('Over the Horizon') 64bit
Библиотека кодирования : libebml v1.3.1 + libmatroska v1.4.2

Видео
Идентификатор : 1
Формат : AVC
Формат/Информация : Advanced Video Codec
Профиль формата : [email protected]
Настройки формата : 2 Ref Frames
Параметр CABAC формата : Нет
Параметр ReFrames формата : 2 кадра
Идентификатор кодека : V_MPEG4/ISO/AVC
Продолжительность : 1 ч. 40 м.
Битрейт : 3987 Кбит/сек
Ширина : 960 пикселей
Высота : 536 пикселей
Соотношение сторон : 2,40:1
Режим частоты кадров : Постоянный
Частота кадров : 25,000 кадров/сек
Цветовое пространство : YUV
Субдискретизация насыщенности : 4:2:0
Битовая глубина : 8 бит
Тип развёртки : Прогрессивная
Бит/(Пиксели*Кадры) : 0.310
Размер потока : 2,79 Гбайт (91%)
Язык : English
Default : Да
Forced : Нет
Цветовой диапазон : Limited
Основные цвета : BT.709
Характеристики трансфера : BT.709
Коэффициенты матрицы : BT.709

Аудио
Идентификатор : 2
Формат : AC-3
Формат/Информация : Audio Coding 3
Идентификатор кодека : A_AC3
Продолжительность : 1 ч. 40 м.
Вид битрейта : Постоянный
Битрейт : 384 Кбит/сек
Каналы : 6 каналов
Расположение каналов : Front: L C R, Side: L R, LFE
Частота : 48,0 КГц
Частота кадров : 31,250 кадров/сек (1536 SPF)
Битовая глубина : 16 бит
Метод сжатия : С потерями
Размер потока : 275 Мбайт (9%)
Язык : Russian
Default : Да
Forced : Нет

Меню
00:00:00.000 : en:Глава 1
00:05:12.360 : en:Глава 2
00:11:34.680 : en:Глава 3
00:17:38.400 : en:Глава 4
00:24:35.840 : en:Глава 5
00:30:40.600 : en:Глава 6
00:37:38.320 : en:Глава 7
00:43:34.960 : en:Глава 8
00:50:05.840 : en:Глава 9
00:56:41.760 : en:Глава 10
01:02:36.120 : en:Глава 11
01:10:08.200 : en:Глава 12
01:14:43.640 : en:Глава 13
01:19:27.320 : en:Глава 14
01:25:07.920 : en:Глава 15




Скачать Скиф через торрент http://i102.fastpic.ru/big/2018/0220/01/e4b2c7e69ddbc33f39bdb900f3d4b601.jpg Скачать, смотреть онлайн Скиф бесплантно в хорошем качестве Описание: Действие фильма происходит во время смены цивилизаций. В Евразии начинается новая эра. Ушли в небытие гордые воины - скифы, их ... 8.6 10 13
Info! Золотая раздача, скачанное не засчитывается.
Торрент: Зарегистрирован [2018-02-20 01:57] · скачан: 504 раз
Статус: √ проверено
Размер: 3.06 GB
Как cкачать? Как скачать Скиф через торрент | UTorrent

% Раздел Тема Автор DL S | L
Наши фильмы 2018-2019 [ 1.46 GB ] Скиф | Лицензия | BDRip от Twi7ter Twi7ter Скачать
1 | 0
Наши фильмы 2018-2019 [ 2.8 GB ] Скиф | Лицензия | BDRip-AVC bober100 Скачать
1 | 0
Наши фильмы (HD, WEB-DL 720p, 1080p) [ 11.51 GB ] Скиф | Лицензия | 1080p bober100 Скачать
1 | 0
Наши фильмы 2018-2019 [ 2.05 GB ] Скиф | Лицензия | HDRip bober100 Скачать
1 | 0
Наши фильмы (HD, WEB-DL 720p, 1080p) [ 4.35 GB ] Скиф | | 1080p, HEVC (10bit Мичман37 Скачать
1 | 0
Наши фильмы (HD, WEB-DL 720p, 1080p) [ 4.76 GB ] Скиф | Лицензия | 720p Enigma2010 Скачать
1 | 0
Наши фильмы 2018-2019 [ 745 MB ] Скиф | Лицензия | BDRip bober100 Скачать
1 | 0

28-11-2019 20:33  


Отключить вcю реклaмy на сайте, в т.ч. и в плеере онлайн просмотра!

21-02-2018 05:47 Скиф Скачать торрент  

Слухайте, а фильмец то нормальный. Мне понравился.



21-02-2018 15:39 Скиф Скачать торрент  

классная сказка.все здорово.



    Дорогой пользователь! Огромная просьба, поблагодарите релизера, оцените раздачу и оставьте свои комментарий, если Вы скачали Скиф через торрент бесплатно!!
    Комментировать посты могут только пользователи прошедшие не сложную регистрацию
    Показать сообщения:    


    Скиф через торрент
    Скачать бесплатно Скиф
    Скиф скачать торрент
    Скиф смотреть онлайн
    Cкачать фильм Скиф бесплатно
    Скиф скачать торрент в хорошем качестве
    Скиф смотреть онлайн бесплатно в хорошем качестве
    Вы не можете начинать темы
    Вы не можете отвечать на сообщения
    Вы не можете редактировать свои сообщения
    Вы не можете удалять свои сообщения
    Вы не можете голосовать в опросах
    Вы не можете прикреплять файлы к сообщениям
    Вы можете скачивать файлы