Всегда рабочее зеркало без VPN и Proxy просто перед .vidak.icu напиши любое слово или цифру, Пример http://bjei.vidak.icu

Лицензия

MVO

1 сезон

1

1 сезон

iTunes

1 сезон

13

1 сезон

Deluxe

pack

Рекомендуем

Repack

30

ВАЖНО

RePack

MK11

RePack

jed

RePack

fifa19

RePack

RDR2

RePack

NEED FOR SPEED™ PAYBACK

Кинопоиск HD

6 сезон

 Острые козырьки 6 сезон

Все сериалы

все сериалы на PB.wtf

RePack

FAR CRY 5
  
Magnet ссылка

Непрощенный / Unforgiven (Клинт Иствуд) [1992, Драма, вестерн, UHD BDRemux 2160p] AVO [Живов, Гаврилов] +DUB [Варус Видео] +DVO [НТВ] +3xMVO [Позитив-Мультимедиа, CP-Digital] [Лицензия] pb.wtf

Непрощенный через торрент pb.wtf

Размер: 54.62 GB | Добавлен: 4 года 5 мес. назад | Торрент скачан:76 раз
Смотреть онлайн Непрощенный | Скачать    Ребята, помогите собрать деньги на оплату серверов!!!

20-02-2018 09:45 Непрощенный Скачать торрент  

Непрощенный / Unforgiven
Год выпуска: 1992
Страна: США
Жанр: Драма, вестерн
Продолжительность: 02:10:43
Перевод:

1. Профессиональный многоголосый - Лицензия, Позитив-Мультимедиа, CP-Digital
2. профессиональный двухголосый - НТВ
3. дублированный - Варус Видео / Студия Нева
4. авторский - [Живов, Гаврилов]

Субтитры: Русские, английские

Режиссер: Клинт Иствуд

rating

В ролях:

Клинт Иствуд, Джин Хэкмен, Морган Фримен, Ричард Харрис, Джаймз Вулветт, Сол Рубинек, Фрэнсис Фишер, Анна Левайн-Томсон, Дэвид Муччи, Роб Кэмпбелл

Описание:

Это история Уильяма Мунни — бывшего хладнокровного убийцы, нашедшего в себе силы покончить с грязным ремеслом. Он стал фермером, завел семью. И вот сейчас его жена умирает, оставляя его одного с двумя детьми. Мунни беден, ему нужны деньги. Скофилд Кид предлагает ему поймать двух ковбоев, совершивших преступление, и получить за это вознаграждение. Но все складывается совсем не так, как хотелось…

Качество: UHD BDRemux 2160p
Формат: MKV

Видео: MPEG-H HEVC HDR, 52.9 Mбит/с, 3840x2160, 23.976 кадр/с
Аудио#1: Русский (AC3, 6 ch, 640 Кбит/с) / Профессиональный многоголосый (Позитив-Мультимедиа)
Аудио#2: Русский (AC3, 6 ch, 448 Кбит/с) / Профессиональный многоголосый (CP-Digital)
Аудио#3: Русский (AC3, 2 ch, 192 Кбит/с) / Профессиональный многоголосый (Blu-ray EUR)
Аудио#4: Русский (AC3, 2 ch, 224 Кбит/с) / Дублированный (Варус Видео / Студия Нева)
Аудио#5: Русский (AC3, 2 ch, 192 Кбит/с) / Профессиональный двухголосый (НТВ)
Аудио#6: Русский (AC3, 6 ch, 448 Кбит/с) / Авторский (Живов)
Аудио#7: Русский (AC3, 6 ch, 384 Кбит/с) / Авторский (Гаврилов)
Аудио#8: Английский (DTS-HD MA, 6 ch, 4394 Кбит/с)
скриншот  скриншот  скриншот  скриншот  скриншот  

General
Unique ID : 22456059623058704213749797250583849399 (0x10E4E13859E102BD781CE07AC6D169B7)
Complete name : D:uTorrentNeprostcjennyi.1992.2160p.HEVC.UHD.HDR.MediaClub.mkv
Format : Matroska
Format version : Version 4 / Version 2
File size : 54.6 GiB
Duration : 2 h 10 min
Overall bit rate : 59.8 Mb/s
Encoded date : UTC 2018-02-16 08:42:58
Writing application : mkvmerge v19.0.0 ('Brave Captain') 64-bit
Writing library : libebml v1.3.5 + libmatroska v1.4.8
Cover : Yes
Attachments : cover.jpg

Video
ID : 1
Format : HEVC
Format/Info : High Efficiency Video Coding
Format profile : Main [email protected]@High
Codec ID : V_MPEGH/ISO/HEVC
Duration : 2 h 10 min
Bit rate : 52.9 Mb/s
Width : 3 840 pixels
Height : 2 160 pixels
Display aspect ratio : 16:9
Frame rate mode : Constant
Frame rate : 23.976 (24000/1001) FPS
Color space : YUV
Chroma subsampling : 4:2:0 (Type 2)
Bit depth : 10 bits
Bits/(Pixel*Frame) : 0.266
Stream size : 48.3 GiB (88%)
Title : BDRemux, 20160p, HEVC, UDH, HDR by Silverok
Default : Yes
Forced : No
Color range : Limited
Color primaries : BT.2020
Transfer characteristics : PQ
Matrix coefficients : BT.2020 non-constant
Mastering display color primaries : Display P3
Mastering display luminance : min: 0.0050 cd/m2, max: 4000 cd/m2
Maximum Content Light Level : 500 cd/m2
Maximum Frame-Average Light Level : 200 cd/m2

Audio #1
ID : 2
Format : AC-3
Format/Info : Audio Coding 3
Codec ID : A_AC3
Duration : 2 h 10 min
Bit rate mode : Constant
Bit rate : 640 kb/s
Channel(s) : 6 channels
Channel positions : Front: L C R, Side: L R, LFE
Sampling rate : 48.0 kHz
Frame rate : 31.250 FPS (1536 SPF)
Bit depth : 16 bits
Compression mode : Lossy
Stream size : 598 MiB (1%)
Title : профессиональный многоголосый (Позитив-Мультимедиа)
Language : Russian
Service kind : Complete Main
Default : Yes
Forced : No

Audio #2
ID : 3
Format : AC-3
Format/Info : Audio Coding 3
Codec ID : A_AC3
Duration : 2 h 10 min
Bit rate mode : Constant
Bit rate : 448 kb/s
Channel(s) : 6 channels
Channel positions : Front: L C R, Side: L R, LFE
Sampling rate : 48.0 kHz
Frame rate : 31.250 FPS (1536 SPF)
Bit depth : 16 bits
Compression mode : Lossy
Stream size : 419 MiB (1%)
Title : профессиональный многоголосый (CP-Digital)
Language : Russian
Service kind : Complete Main
Default : No
Forced : No

Audio #3
ID : 4
Format : AC-3
Format/Info : Audio Coding 3
Codec ID : A_AC3
Duration : 2 h 10 min
Bit rate mode : Constant
Bit rate : 192 kb/s
Channel(s) : 2 channels
Channel positions : Front: L R
Sampling rate : 48.0 kHz
Frame rate : 31.250 FPS (1536 SPF)
Bit depth : 16 bits
Compression mode : Lossy
Stream size : 179 MiB (0%)
Title : профессиональный многоголосый (Blu-ray EUR)
Language : Russian
Service kind : Complete Main
Default : No
Forced : No

Audio #4
ID : 5
Format : AC-3
Format/Info : Audio Coding 3
Codec ID : A_AC3
Duration : 2 h 10 min
Bit rate mode : Constant
Bit rate : 224 kb/s
Channel(s) : 2 channels
Channel positions : Front: L R
Sampling rate : 48.0 kHz
Frame rate : 31.250 FPS (1536 SPF)
Bit depth : 16 bits
Compression mode : Lossy
Stream size : 209 MiB (0%)
Title : дубляж (Варус Видео / Студия Нева)
Language : Russian
Service kind : Complete Main
Default : No
Forced : No

Audio #5
ID : 6
Format : AC-3
Format/Info : Audio Coding 3
Codec ID : A_AC3
Duration : 2 h 10 min
Bit rate mode : Constant
Bit rate : 192 kb/s
Channel(s) : 2 channels
Channel positions : Front: L R
Sampling rate : 48.0 kHz
Frame rate : 31.250 FPS (1536 SPF)
Bit depth : 16 bits
Compression mode : Lossy
Stream size : 179 MiB (0%)
Title : профессиональный двухголосый (НТВ)
Language : Russian
Service kind : Complete Main
Default : No
Forced : No

Audio #6
ID : 7
Format : AC-3
Format/Info : Audio Coding 3
Codec ID : A_AC3
Duration : 2 h 10 min
Bit rate mode : Constant
Bit rate : 448 kb/s
Channel(s) : 6 channels
Channel positions : Front: L C R, Side: L R, LFE
Sampling rate : 48.0 kHz
Frame rate : 31.250 FPS (1536 SPF)
Bit depth : 16 bits
Compression mode : Lossy
Stream size : 419 MiB (1%)
Title : авторский (Живов)
Language : Russian
Service kind : Complete Main
Default : No
Forced : No

Audio #7
ID : 8
Format : AC-3
Format/Info : Audio Coding 3
Codec ID : A_AC3
Duration : 2 h 10 min
Bit rate mode : Constant
Bit rate : 384 kb/s
Channel(s) : 6 channels
Channel positions : Front: L C R, Side: L R, LFE
Sampling rate : 48.0 kHz
Frame rate : 31.250 FPS (1536 SPF)
Bit depth : 16 bits
Compression mode : Lossy
Stream size : 359 MiB (1%)
Title : авторский (Гаврилов)
Language : Russian
Service kind : Complete Main
Default : No
Forced : No

Audio #8
ID : 11
Format : DTS
Format/Info : Digital Theater Systems
Format profile : MA / Core
Codec ID : A_DTS
Duration : 2 h 10 min
Bit rate mode : Variable / Constant
Bit rate : 4 394 kb/s / 1 509 kb/s
Channel(s) : 6 channels
Channel positions : Front: L C R, Side: L R, LFE
Sampling rate : 48.0 kHz
Frame rate : 93.750 FPS (512 SPF)
Bit depth : 24 bits
Compression mode : Lossless / Lossy
Stream size : 4.01 GiB (7%)
Language : English
Default : No
Forced : No

Text #1
ID : 9
Format : UTF-8
Codec ID : S_TEXT/UTF8
Codec ID/Info : UTF-8 Plain Text
Duration : 2 h 6 min
Bit rate : 80 b/s
Count of elements : 1467
Stream size : 74.5 KiB (0%)
Title : Позитив-Мультимедиа
Language : Russian
Default : No
Forced : No

Text #2
ID : 10
Format : UTF-8
Codec ID : S_TEXT/UTF8
Codec ID/Info : UTF-8 Plain Text
Duration : 2 h 8 min
Bit rate : 44 b/s
Count of elements : 1292
Stream size : 42.4 KiB (0%)
Title : Full
Language : Russian
Default : No
Forced : No

Menu
00:00:00.000 : en:Foreword [1:11]
00:01:11.863 : en:Big Whiskey Disturbance [2:42]
00:03:54.359 : en:"No Fuss" Fine [3:06]
00:07:01.379 : en:"We Ain't Horses" [1:16]
00:08:17.622 : en:Schofield Kid [5:52]
00:14:10.808 : en:Payment Day [2:43]
00:16:54.805 : en:Out of Practice [7:23]
00:24:18.582 : en:Done Stuff for Money [4:33]
00:28:52.689 : en:Just a Fella Now [2:49]
00:31:42.358 : en:Majesty of Royalty [2:52]
00:34:34.864 : en:No Firearms Allowed [4:18]
00:38:54.123 : en:Welcoming English Bob [7:30]
00:46:24.907 : en:Not-so-Straight Shooter [7:19]
00:53:44.346 : en:Duke of Death [4:20]
00:58:05.273 : en:Killers' Campfire [2:19]
01:00:24.912 : en:Object Lesson [6:23]
01:06:49.130 : en:Farewell to Savages [2:47]
01:09:36.297 : en:Vision of the Dead [4:12]
01:13:48.882 : en:Big Whiskey Hospitality [7:10]
01:20:59.813 : en:Angel of Death [3:46]
01:24:46.873 : en:"We Both Got Scars" [4:51]
01:29:38.998 : en:Water for a Dying Man [4:48]
01:34:27.453 : en:Ned's Decision [1:43]
01:36:10.890 : en:"He Had It Coming" [4:59]
01:41:11.190 : en:Interrogating Ned [2:02]
01:43:13.812 : en:Assassins Strike [2:36]
01:45:50.469 : en:A Hel of a Thing [3:28]
01:49:19.344 : en:Will's Only Friend [3:55]
01:53:14.746 : en:On Display [1:19]
01:54:34.325 : en:Here to Kill You [3:47]
01:58:21.719 : en:"Deserves Got Nothin' to Do With It" [3:51]
02:02:13.117 : en:Killer's Threat [2:19]
02:04:32.256 : en:Epilogue and End Credits [6:09]

pb.wtf



Скачать Непрощенный через торрент http://img12.lostpic.net/2018/02/20/04187229874573afea98945a3a24b9c7.jpg Скачать, смотреть онлайн Непрощенный бесплантно в хорошем качестве Описание: Это история Уильяма Мунни — бывшего хладнокровного убийцы, нашедшего в себе силы покончить с грязным ремеслом. Он стал фермером, ... 8.8 10 4
Торрент: Зарегистрирован [2018-02-20 09:45] · скачан: 76 раз
Статус: √ проверено
Размер: 54.62 GB
Как cкачать? Как скачать Непрощенный через торрент | UTorrent

% Раздел Тема Автор DL S | L
Фильмы до 2000 г. [ 2.18 GB ] Непрощенный / Unforgiven [1992 ... BDRip] кэп Скачать
2 | 0
Фильмы [HD 720p, 1080p] (Хороший звук DUB, MVO) [ 12.41 GB ] Непрощенный / Unforgiven [1992 BDRip 1080p] [Remastered] Dub + 2xMVO + DVO + 6xAVO - KORSAR kisa1980 Скачать
1 | 0
Фильмы [HD 720p, 1080p] (Хороший звук DUB, MVO) [ 7.34 GB ] Непрощенный / Unforgiven [1992 BDRip 720p] [Remastered] Dub + 2xMVO + DVO + 6xAVO - KORSAR kisa1980 Скачать
1 | 0
Азиатские фильмы [ 2.84 GB ] Непрощенный / Unforgiven / Yurusarezaru mono [2013 Япония HDRip] VO [Nosferatu13fd] + VO [BadCatStudio] + original Jap + Sub Ворон Скачать
1 | 0
Зарубежные сериалы [ 5.95 GB ] Непрощенная / Unforgiven / Сезон: 1 / Серия: 1-3 из 3 [2009 HDTVRip 720p] MVO Кинопоказ + Original Messa-fan Скачать
1 | 0

28-11-2019 20:33  

Отключить вcю реклaмy на сайте

    Дорогой пользователь! Огромная просьба, поблагодарите релизера, оцените раздачу и оставьте свои комментарий, если Вы скачали Непрощенный через торрент бесплатно!
    Комментировать посты могут только пользователи прошедшие не сложную регистрацию
    Показать сообщения:    

    Непрощенный через торрент
    Скачать бесплатно Непрощенный
    Непрощенный скачать торрент
    Непрощенный смотреть онлайн
    Cкачать фильм Непрощенный бесплатно
    Непрощенный скачать торрент в хорошем качестве
    Непрощенный смотреть онлайн бесплатно в хорошем качестве


    Вы не можете начинать темы
    Вы не можете отвечать на сообщения
    Вы не можете редактировать свои сообщения
    Вы не можете удалять свои сообщения
    Вы не можете голосовать в опросах
    Вы не можете прикреплять файлы к сообщениям
    Вы можете скачивать файлы