Ссылка на приватное зеркало всего за 1$. Внимание количество ограничено!!!

iTunes

iTunes

iTunes

1

iTunes

iTunes

iTunes

iTunes

iTunes

30
pack

Новость дня

ВАЖНО

!!Акция!!

Alien_RageХит недели

RePack

Resident Evil 21

ИГРА 18+

pack

RePack

jed

!!Акция!!

Alien_Rage

RePack

fifa19

RePack

Assassins Creed: Odyssey

RePack

NEED FOR SPEED™ PAYBACK

4 сезон

9 сезон

Бесстыжие 9 сезон

Все сериалы

все сериалы на PB.wtf

RePack

FAR CRY 5
  

Старики (Владимир Вобликов) [2015, драма, HDTVRip] pb.wtf

Старики через торрент pb.wtf

Размер: 1.46 GB | Добавлен: 2 года 3 мес. назад | Торрент скачан:48 раз
Скачать  

20-02-2018 11:26 Старики Скачать торрент  

СтарикиГод выпуска: 2015
Страна: Россия
Жанр: драма
Продолжительность: 01:46:31
Перевод: не требуется (оригинал)
Субтитры: отсутствуют

Режиссер: Владимир Вобликов



В ролях:

Виталий Стужев, Ирина Сидорова, Сергей Фетисов, Михаил Асанкин, Михаил Шилов, Василий Шмаков, Александра Агранович

Описание:

Три пожилых человека — Мультик, Гастрит и Анна — живут одни в заброшенной деревне за 10 километров от районного центра. Они живут только надеждой, что когда-нибудь к ним приедут их дети, которые давно о них забыли. Это по-доброму сумасшедшие люди, которые хотят добра другим, а в своей жизни мало чего хорошего видели. Старики ссорятся, мирятся, сватаются, женятся, но, понимая, что всё это бессмысленно, решают взять судьбу в свои руки и доказать, что не всё ещё потеряно...

Качество: HDTVRip | исходник Старики.2015.HDTV.1080i-ylnian
Формат: AVI
Видео кодек: XviD
Аудио кодек: AC3

Видео: 720x400 (16:9), 25.000 fps, XviD build 67 ~1 501 kbps avg
Аудио: 48.0 kHz, AC3 Dolby Digital, 3/2 (L,C,R,l,r) + LFE ch, ~448 kbps


запись с канала Наш Кинороман HD

скриншот   скриншот   скриншот  

General
Полное имя : Старики.2015.HDTVRip-ylnian.avi
Формат : AVI
Формат/Информация : Audio Video Interleave
Размер файла : 1,46 Гбайт
Продолжительность : 1 ч. 46 м.
Общий поток : 1958 Кбит/сек
Программа кодирования : VirtualDubMod 1.5.10.2 (build 2540/release)
Библиотека кодирования : VirtualDubMod build 2540/release

Видео
Идентификатор : 0
Формат : MPEG-4 Visual
Профиль формата : Advanced Simple@L5
Настройки формата : BVOP1
Параметр BVOP формата : 1
Параметр QPel формата : Нет
Параметр GMC формата : Без точки перехода
Параметр матрицы формата : Default (MPEG)
Идентификатор кодека : XVID
Идентификатор кодека/Подсказка : XviD
Продолжительность : 1 ч. 46 м.
Битрейт : 1501 Кбит/сек
Ширина : 720 пикселей
Высота : 400 пикселей
Соотношение сторон : 16:9
Частота кадров : 25,000 кадров/сек
Цветовое пространство : YUV
Субдискретизация насыщенности : 4:2:0
Битовая глубина : 8 бит
Тип развёртки : Прогрессивная
Метод сжатия : С потерями
Бит/(Пиксели*Кадры) : 0.208
Размер потока : 1,12 Гбайт (77%)
Библиотека кодирования : XviD 67

Аудио
Идентификатор : 1
Формат : AC-3
Формат/Информация : Audio Coding 3
Идентификатор кодека : 2000
Продолжительность : 1 ч. 46 м.
Вид битрейта : Постоянный
Битрейт : 448 Кбит/сек
Каналы : 6 каналов
Расположение каналов : Front: L C R, Side: L R, LFE
Частота : 48,0 КГц
Частота кадров : 31,250 кадров/сек (1536 SPF)
Битовая глубина : 16 бит
Метод сжатия : С потерями
Размер потока : 341 Мбайт (23%)
Выравнивание : Разделение по промежуткам
Продолжительность промежутка : 40 мс. (1,00 видеокадр)
Время предзагрузки промежутка : 500 мс.

pb.wtf



Скачать Старики через торрент http://d.radikal.ru/d03/1802/76/8f5732470b3e.png Скачать фильм Старики через торрент бесплантно в хорошем качестве Описание: Три пожилых человека — Мультик, Гастрит и Анна — живут одни в заброшенной деревне за 10 километров от районного центра. Они живут ... 10 10 4
Торрент: Зарегистрирован [2018-02-20 11:26] · скачан: 48 раз
Статус: √ проверено
Размер: 1.46 GB
Как cкачать? Как скачать Старики через торрент | qTorrent

% Раздел Тема Автор DL S | L
Кино СССР [ 8.77 GB ] В бой идут одни «старики» [Цветная версия] [1973 Военный BDRip 1080p-HEVC 10bit] ADVOKAT69 Скачать
1 | 0
Наши фильмы, до 2010 [ 1.35 GB ] В бой идут одни старики [1973 Военный DVDRip] paul08 Скачать
1 | 0
Фильмы [HD 720p, 1080p] (Хороший звук DUB, MVO) [ 7.36 GB ] Старик с пистолетом / The Old Man & the Gun [2018 биография BDRip 720p] +AVO [М. Яроцкий ] bober100 Скачать
1 | 0
Фильмы 2018 [DVDrip, WEB-DLRip, HDrip] (DUB, MVO) [ 1.42 GB ] Старик с пистолетом / The Old Man & the Gun [2018 BDRip] - Twi7ter Скачать
6 | 0
Фильмы (Blu-ray, BD-Remux, HDDVD) [ 25.36 GB ] Старик с пистолетом / The Old Man & the Gun [2018 биография BD Remux 1080p] +AVO [М. Яроцкий ] bober100 Скачать
1 | 0
Фильмы 2018 [DVDrip, WEB-DLRip, HDrip] (DUB, MVO) [ 747 MB ] Старик с пистолетом / The Old Man & the Gun [2018 биография BDRip] bober100 Скачать
1 | 0
Фильмы [HD 720p, 1080p] (Хороший звук DUB, MVO) [ 14.24 GB ] Старик с пистолетом / The Old Man & the Gun [2018 биография BDRip 1080p] +AVO [М. Яроцкий ] bober100 Скачать
1 | 0

28-11-2019 20:33  

Отключить всю рекламу на сайте

    Дорогой пользователь! Огромная просьба, поблагодарите релизера, оцените раздачу и оставьте свои комментарий, если Вы скачали Старики через торрент бесплатно! Внесите свою лепту в развитие PiratBit!
    Комментировать посты могут только пользователи прошедшие не сложную регистрацию
    Показать сообщения:    

    Старики через торрент
    Скачать бесплатно Старики
    Старики скачать торрент
    Старики смотреть онлайн
    Cкачать фильм Старики бесплатно
    Старики скачать торрент в хорошем качестве
    Старики смотреть онлайн бесплатно в хорошем качестве


    Вы не можете начинать темы
    Вы не можете отвечать на сообщения
    Вы не можете редактировать свои сообщения
    Вы не можете удалять свои сообщения
    Вы не можете голосовать в опросах
    Вы не можете прикреплять файлы к сообщениям
    Вы можете скачивать файлы