Ссылка на приватное зеркало нашего сайта всего за 1$. Внимание количество ограничено!!!

2 сезон

iTunes

1 сезон

1

2 сезон

2 сезон

iTunes

1 сезон

RePack

30

Новинка

ВАЖНО

ИГРА 18+

pack

RePack

MK11
pack

Забери бонус

RePack

jed

!!Акция!!

Alien_Rage

RePack

fifa19

RePack

Assassins Creed: Odyssey

RePack

NEED FOR SPEED™ PAYBACK

4 сезон

9 сезон

Бесстыжие 9 сезон

Все сериалы

все сериалы на PB.wtf

RePack

FAR CRY 5
  

Любовь-морковь по-французски / L'un dans l'autre (Бруно Шиш) [2017, комедия, WEB-DL 1080p] DUB [iTunes] pb.wtf

Любовь-морковь по-французски через торрент pb.wtf

Размер: 2.9 GB | Добавлен: 2 года 9 мес. назад | Торрент скачан:98 раз
Скачать  

20-02-2018 13:22 Любовь-морковь по-французски Скачать торрент  

Любовь-морковь по-французски / L'un dans l'autreГод выпуска: 2017
Страна: Франция
Жанр: комедия
Продолжительность: 01:24:04
Перевод: Дублированный | iTunes
Субтитры: отсутствуют

Режиссер: Бруно Шиш

rating

В ролях:

Стефан Де Гродт, Луиз Бургуан, Ор Атика, Пьер-Франсуа Мартен-Лаваль, Энн Бенуа, Эллиот Дора, Жуд Гайстлих, Филипп Вие, Констанс Лаббе, Людивин де Шасне

Описание:

Пьер и Эми и Эрик и Пенелопа дружат тысячу лет. Но вдруг Пьер и Пенелопа становятся любовниками. Не в силах выйти из ситуации, они решают прекратить отношения. Но после ночи, которая должна была стать последней, они просыпаются... в телах друг друга! Теперь им нужно сохранить свою тайну и как-то вывернуться из всех проблем.

Качество: WEB-DL 1080p
Формат: MKV
Видео кодек: H.264
Аудио кодек: AC3

Видео: MPEG-4 AVC, 1920x804, 4555 kbps, 24,000 fps
Аудио: Русский: AC3, 6 ch, 48 kHz, 384 kbps
скриншот   скриншот   скриншот   скриншот   скриншот  

Общее
Уникальный идентификатор : 246464464442229102233205605202111075082 (0xB96B54486534FA25BDC5C8FF2E91930A)
Полное имя : H:Deluge торрентыЛюбовь-морковь по-французски (1080p.mkv
Формат : Matroska
Версия формата : Version 4 / Version 2
Размер файла : 2,90 Гбайт
Продолжительность : 1 ч. 24 м.
Общий поток : 4941 Кбит/сек
Дата кодирования : UTC 2018-02-20 11:07:10
Программа кодирования : mkvmerge v9.5.0 ('Quiet Fire') 64bit
Библиотека кодирования : libebml v1.3.4 + libmatroska v1.4.5

Видео
Идентификатор : 1
Формат : AVC
Формат/Информация : Advanced Video Codec
Профиль формата : High@L4
Настройки формата : CABAC / 5 Ref Frames
Параметр CABAC формата : Да
Параметр RefFrames формата : 5 кадров
Идентификатор кодека : V_MPEG4/ISO/AVC
Продолжительность : 1 ч. 24 м.
Битрейт : 4555 Кбит/сек
Ширина : 1920 пикселей
Высота : 804 пикселя
Соотношение сторон : 2,40:1
Режим частоты кадров : Постоянный
Частота кадров : 24,000 кадра/сек
Цветовое пространство : YUV
Субдискретизация насыщенности : 4:2:0
Битовая глубина : 8 бит
Тип развёртки : Прогрессивная
Бит/(Пиксели*Кадры) : 0.123
Размер потока : 2,67 Гбайт (92%)
Язык : English
Default : Да
Forced : Нет
Цветовой диапазон : Limited
Основные цвета : BT.709
Характеристики трансфера : BT.709
Коэффициенты матрицы : BT.709

Аудио
Идентификатор : 2
Формат : AC-3
Формат/Информация : Audio Coding 3
Идентификатор кодека : A_AC3
Продолжительность : 1 ч. 24 м.
Вид битрейта : Постоянный
Битрейт : 384 Кбит/сек
Каналы : 6 каналов
Расположение каналов : Front: L C R, Side: L R, LFE
Частота : 48,0 КГц
Частота кадров : 31,250 кадров/сек (1536 SPF)
Битовая глубина : 16 бит
Метод сжатия : С потерями
Размер потока : 231 Мбайт (8%)
Язык : Russian
Default : Да
Forced : Нет

Меню
00:00:00.000 : en:Глава 1
00:05:11.500 : en:Глава 2
00:11:23.708 : en:Глава 3
00:18:10.291 : en:Глава 4
00:25:19.624 : en:Глава 5
00:31:08.582 : en:Глава 6
00:36:21.290 : en:Глава 7
00:40:55.790 : en:Глава 8
00:47:29.665 : en:Глава 9
00:54:02.706 : en:Глава 10
01:02:06.747 : en:Глава 11
01:07:49.580 : en:Глава 12
01:13:06.413 : en:Глава 13

pb.wtf



Скачать Любовь-морковь по-французски через торрент http://i101.fastpic.ru/big/2018/0206/a8/85b6ed88918b53ad2a6c13acb849c5a8.jpg Скачать фильм Любовь-морковь по-французски через торрент бесплантно в хорошем качестве Описание: Пьер и Эми и Эрик и Пенелопа дружат тысячу лет. Но вдруг Пьер и Пенелопа становятся любовниками. Не в силах выйти из ситуации, ... 8.7 10 7
Торрент: Зарегистрирован [2018-02-20 13:22] · скачан: 98 раз
Статус: √ проверено
Размер: 2.9 GB
Как cкачать? Как скачать Любовь-морковь по-французски через торрент | qTorrent

28-11-2019 20:33  

Отключить всю рекламу на сайте

    Дорогой пользователь! Огромная просьба, поблагодарите релизера, оцените раздачу и оставьте свои комментарий, если Вы скачали Любовь-морковь по-французски через торрент бесплатно! Внесите свою лепту в развитие PiratBit!
    Комментировать посты могут только пользователи прошедшие не сложную регистрацию
    Показать сообщения:    

    Любовь-морковь по-французски через торрент
    Скачать бесплатно Любовь-морковь по-французски
    Любовь-морковь по-французски скачать торрент
    Любовь-морковь по-французски смотреть онлайн
    Cкачать фильм Любовь-морковь по-французски бесплатно
    Любовь-морковь по-французски скачать торрент в хорошем качестве
    Любовь-морковь по-французски смотреть онлайн бесплатно в хорошем качестве


    Вы не можете начинать темы
    Вы не можете отвечать на сообщения
    Вы не можете редактировать свои сообщения
    Вы не можете удалять свои сообщения
    Вы не можете голосовать в опросах
    Вы не можете прикреплять файлы к сообщениям
    Вы можете скачивать файлы