Anonymous, доброй ночи, присоединяйтесь к нам в Telegram!, здесь всегда актуальный адрес сайта, оперативная поддержка и многое другое!

>

5.6

iTunes

7.4

MVO

5.7

MVO

1

7.7

1 сезон

6.8

iTunes

7.3

1 сезон

13

6.7

1 сезон

8.3

RePack

30

ULTIMATE

pack

9.9

Лицензия

ВАЖНО

ИГРА 18+

pack

7.3

RePack

MK11

7.7

RePack

jed

7.8

RePack

fifa19

8.5

RePack

RDR2

RePack

NEED FOR SPEED™ PAYBACK

4 сезон

9 сезон

Бесстыжие 9 сезон

Все сериалы

все сериалы на PB.wtf

RePack

FAR CRY 5

Anonymous, доброй ночи, мы катастрофически не успеваем собрать деньги на оплату серверов, помогите нам пожалуйста 5,10,15р., для нас важна любая помощь . В качестве благодарности мы отключим Вам всю рекламу на сайте (укажите свой ник в строку Ваше имя)!

×
  
Magnet ссылка

Улица / Сезон 1 / Серии 1-79 из 79 (Жанна Кадникова, Николай Бурлак, Михаил Соловьёв) [2017, Драма, комедия, мелодрама, триллер, HDTVRip] pb.wtf

Улица через торрент pb.wtf

Размер: 20.87 GB | Добавлен: 3 года 7 мес. назад | Торрент скачан:119 раз
Смотреть онлайн Улица | Скачать    Ребята, помогите собрать деньги на оплату серверов!!!

20-02-2018 18:04 Улица Скачать торрент  

УлицаГод выпуска: 2017
Страна: Россия
Жанр: Драма, комедия, мелодрама, триллер
Продолжительность: x ~ 00:27:00
Перевод: Не требуется
Субтитры: нет



Режиссер: Жанна Кадникова, Николай Бурлак, Михаил Соловьёв

В ролях:

Егор Клинаев, Ольга Баранова, Владимир Хацкевич, Екатерина Седик, Павел Савинков, Сергей Змичеревский, Артемий Падалка, Марина Богатова, Ксения Жданова, Марта Дромашко, Александр Терехов

Описание:

«Улица» — это история жителей одной из улиц спального района большого города. Школьники и студенты, домохозяйки и продавцы, олигархи и простые рабочие — здесь встретятся более 30 персонажей разного возраста и социального статуса, у каждого из них своя история. В большой Вселенной «Улицы» нет главных и второстепенных героев, здесь есть бурная жизнь с ее радостями, горестями, казусами и косяками, страхами, любовными переживаниями и трагедиями. Это история про всех нас и наших соседей.

Качество: HDTVRip
Формат: AVI

Видео: XviD build 73, 688x384 (16:9), 25.000 fps, ~ 1300 Kbps (~ 0.180 bit/pixel)
Аудио: 48.0 kHz, MP3, 2/0 ch, 128 kbps
скриншот   скриншот   скриншот  

Общее
Полное имя : D:\Ulica.S01.2017.XviD.HDTVRip.GeneralFilm\Ulica.S01E01.avi
Формат : AVI
Формат/Информация : Audio Video Interleave
Размер файла : 279 Мбайт
Продолжительность : 27 м. 12 с.
Общий поток : 1431 Кбит/сек
Программа кодирования : VirtualDubMod 1.5.10.3 | www.virtualdub-fr.org || (build 2550/release)
Библиотека кодирования : VirtualDubMod build 2550/release

Видео
Идентификатор : 0
Формат : MPEG-4 Visual
Профиль формата : Advanced Simple@L5
Параметр BVOP формата : 1
Параметр QPel формата : Нет
Параметр GMC формата : Без точки перехода
Параметр матрицы формата : Выборочная
Идентификатор кодека : XVID
Идентификатор кодека/Подсказка : XviD
Продолжительность : 27 м. 12 с.
Битрейт : 1293 Кбит/сек
Ширина : 688 пикселей
Высота : 384 пикселя
Соотношение сторон : 16:9
Частота кадров : 25,000 кадров/сек
Цветовое пространство : YUV
Субдискретизация насыщенности : 4:2:0
Битовая глубина : 8 бит
Тип развёртки : Прогрессивная
Метод сжатия : С потерями
Бит/(Пиксели*Кадры) : 0.196
Размер потока : 252 Мбайт (90%)
Библиотека кодирования : XviD 73

Аудио
Идентификатор : 1
Формат : MPEG Audio
Версия формата : Version 1
Профиль формата : Layer 3
Идентификатор кодека : 55
Идентификатор кодека/Подсказка : MP3
Продолжительность : 27 м. 12 с.
Вид битрейта : Постоянный
Битрейт : 128 Кбит/сек
Каналы : 2 канала
Частота : 48,0 КГц
Метод сжатия : С потерями
Размер потока : 24,9 Мбайт (9%)
Выравнивание : Соединение по промежуткам
Продолжительность промежутка : 40 мс. (1,00 видеокадр)
Время предзагрузки промежутка : 504 мс.
Библиотека кодирования : LAME3.99r
Настройки программы : -m s -V 4 -q 0 -lowpass 17 -b 128

pb.wtf



Скачать Улица через торрент http://img12.lostpic.net/2018/02/20/0d7aa161b6e67cf2a7a105b008697a80.jpg Скачать, смотреть онлайн Улица бесплантно в хорошем качестве Описание: «Улица» — это история жителей одной из улиц спального района большого города. Школьники и студенты, домохозяйки и продавцы, ... 10 10 2
Торрент: Зарегистрирован [2018-02-20 18:04] · скачан: 119 раз
Статус: √ проверено
Размер: 20.87 GB
Как cкачать? Как скачать Улица через торрент | UTorrent

% Раздел Тема Автор DL S | L
TNT serials [ 93.59 GB ] Улица / Сезон 1 / Серии 1-79 из 79 [2017 HDTV 1080i] bober100 Скачать
1 | 0
TNT serials [ 23.25 GB ] Улица / Сезон 1 / Серии 1-79 из 79 [2017 SATRip] bober100 Скачать
1 | 0
TNT serials [ 23.27 GB ] Улица / Сезон: 1 / Серии 1-79 из 79 [2017 Россия WEB-DLRip] GEKADOL Скачать
1 | 0
TNT serials [ 22.86 GB ] Улица / Сезон 1 / Серии 1-79 из 79 [2017 WEB-DLRip-AVC] bober100 Скачать
1 | 0

28-11-2019 20:33  

Отключить всю рекламу на сайте

20-02-2018 21:50 Улица Скачать торрент  

должно быть 80 серий а не как у вас 79pb.wtf



20-02-2018 21:58 Улица Скачать торрент  

somic писал(а):

должно быть 80 серий а не как у вас 79

Серий больше не будет. Финал сезона!!! Ждем 2-й.pb.wtf



    Дорогой пользователь! Огромная просьба, поблагодарите релизера, оцените раздачу и оставьте свои комментарий, если Вы скачали Улица через торрент бесплатно!
    Комментировать посты могут только пользователи прошедшие не сложную регистрацию
    Показать сообщения:    

    Улица через торрент
    Скачать бесплатно Улица
    Улица скачать торрент
    Улица смотреть онлайн
    Cкачать фильм Улица бесплатно
    Улица скачать торрент в хорошем качестве
    Улица смотреть онлайн бесплатно в хорошем качестве


    Вы не можете начинать темы
    Вы не можете отвечать на сообщения
    Вы не можете редактировать свои сообщения
    Вы не можете удалять свои сообщения
    Вы не можете голосовать в опросах
    Вы не можете прикреплять файлы к сообщениям
    Вы можете скачивать файлы