новый адрес
Ссылка на приватное зеркало всего за 1$. Внимание количество ограничено!!!

iTunes

1+1

iTunes

мы

iTunes

1

iTunes

Чернобыль

iTunes

Ральф против интернета

Лицензия

ПШазам

Лицензия

Оно 2

Лицензия

30
pack

Вам бонус

ВАЖНО

!!Акция!!

Alien_RageХит недели

RePack

Resident Evil 21

ИГРА 18+

pack

RePack

jed

!!Акция!!

Alien_Rage

RePack

fifa19

RePack

Assassins Creed: Odyssey

RePack

NEED FOR SPEED™ PAYBACK

3 сезон

9 сезон

Бесстыжие 9 сезон

Все сериалы

все сериалы на PB.wtf

RePack

FAR CRY 5
Ребята, катастрофически не хватает 1900р. для оплаты серверов за Октябрь (всвязи с блокировками трафик упал в 3 раза), 1-2р., выручайте.
  

Восставший из ада 10: Приговор / Hellraiser: Judgment (Гэри Дж. Танниклифф) [2018, ужасы, BDRip (AVC)] MVO [HDrezka Studio] pb.wtf

Восставший из ада 10: Приговор через торрент pb.wtf

Размер: 2.11 GB | Добавлен: 1 год 9 мес. назад | Торрент скачан:350 раз
Скачать  

20-02-2018 18:24 Восставший из ада 10: Приговор Скачать торрент  

Восставший из ада 10: Приговор / Hellraiser: Judgment
««Зло ищет зло»»


Год выпуска: 2018
Страна: США
Жанр: ужасы

Продолжительность: 01:21:10
Перевод: Профессиональный [многоголосый] [HDrezka Studio]
Субтитры: Английские
Режиссер: Гэри Дж. Танниклифф
В ролях:

Рэнди Уэйн (Detective David Carter), Хэзер Лэнгенкэмп (Landlady), Риган Уоллес (Alison Carter), Алексис Харрис (Detective Christine Egerton), Джон Гулагер (The Assessor), Пол Т. Тейлор (Pinhead), Майк Дж. Риган (The Chatterer), Дэймон Карни (Sean Carter), Молли Никки Андерсон (Witchy spit collector), Мэри Кэтрин Брайант (Jury), Хелена Грэйс Дональд (Jophiel), Грэйс Монти (Crystal Lanning)
Описание:
Детективы Шон и Дэвид Картеры расследует дело о жутких серийных убийствах. Объединив усилия с другим детективом, Кристин Эджертон, они следуют за убийцей всё дальше и дальше в лабиринт ужаса, которому нет места в мире живых. Чем глубже они опускаются по спирали в преисподнюю, тем явственнее понимают, что они клюнули не на ту наживку. Похоже, сенобиты ждут вовсе не жертв маньяка.
Мировая премьера: 13 февраля 2018

rating
Релиз от:

Качество: BDRip (AVC)
Формат: MKV
Видео кодек: AVC
Аудио кодек: AC3
Видео: AVC;1024x576 (16:9);2955 Kbps;23,976 fps;0,209 bpp
Аудио №1: AC3;384 Kbps;CBR;2 ch Русский
Аудио №2: AC3;384 Kbps;CBR;2 ch Английский

Общее
Уникальный идентификатор : 189586970019324040302336025507030714454 (0x8EA11F4C99D0F3E419F5AAD4D3014856)
Полное имя : D:\video\Раздачи\Hellraiser.Judgment.2018.BDRip(AVC).Kinozal-Reliz.by WSM.mkv
Формат : Matroska
Версия формата : Version 4 / Version 2
Размер файла : 2,11 Гбайт
Продолжительность : 1 ч. 21 м.
Общий поток : 3723 Кбит/сек
Дата кодирования : UTC 2018-02-20 17:55:27
Программа кодирования : mkvmerge v20.0.0 ('I Am The Sun') 64-bit
Библиотека кодирования : libebml v1.3.5 + libmatroska v1.4.8

Видео
Идентификатор : 1
Формат : AVC
Формат/Информация : Advanced Video Codec
Профиль формата : High@L4.1
Настройки формата : CABAC / 11 Ref Frames
Параметр CABAC формата : Да
Параметр RefFrames формата : 11 кадров
Идентификатор кодека : V_MPEG4/ISO/AVC
Продолжительность : 1 ч. 21 м.
Битрейт : 2955 Кбит/сек
Ширина : 1024 пикселя
Высота : 576 пикселей
Соотношение сторон : 16:9
Режим частоты кадров : Постоянный
Частота кадров : 23,976 (24000/1001) кадра/сек
Цветовое пространство : YUV
Субдискретизация насыщенности : 4:2:0
Битовая глубина : 8 бит
Тип развёртки : Прогрессивная
Бит/(Пиксели*Кадры) : 0.209
Размер потока : 1,67 Гбайт (79%)
Библиотека кодирования : x264 core 152 r2851 ba24899
Настройки программы : cabac=1 / ref=11 / deblock=1:-3:-3 / analyse=0x3:0x133 / me=umh / subme=11 / psy=1 / psy_rd=1.00:0.10 / mixed_ref=1 / me_range=32 / chroma_me=1 / trellis=2 / 8x8dct=1 / cqm=0 / deadzone=21,11 / fast_pskip=0 / chroma_qp_offset=-3 / threads=6 / lookahead_threads=1 / sliced_threads=0 / nr=0 / decimate=0 / interlaced=0 / bluray_compat=0 / constrained_intra=0 / bframes=10 / b_pyramid=2 / b_adapt=2 / b_bias=0 / direct=3 / weightb=1 / open_gop=0 / weightp=2 / keyint=240 / keyint_min=23 / scenecut=40 / intra_refresh=0 / rc_lookahead=40 / rc=2pass / mbtree=0 / bitrate=2955 / ratetol=1.0 / qcomp=0.60 / qpmin=0 / qpmax=69 / qpstep=4 / cplxblur=20.0 / qblur=0.5 / vbv_maxrate=50000 / vbv_bufsize=62500 / nal_hrd=none / filler=0 / ip_ratio=1.40 / pb_ratio=1.30 / aq=1:1.00
Default : Да
Forced : Нет

Аудио #1
Идентификатор : 2
Формат : AC-3
Формат/Информация : Audio Coding 3
Идентификатор кодека : A_AC3
Продолжительность : 1 ч. 21 м.
Вид битрейта : Постоянный
Битрейт : 384 Кбит/сек
Каналы : 2 канала
Расположение каналов : Front: L R
Частота : 48,0 КГц
Частота кадров : 31,250 кадров/сек (1536 SPF)
Битовая глубина : 16 бит
Метод сжатия : С потерями
Размер потока : 223 Мбайт (10%)
Язык : Russian
ServiceKind/String : Complete Main
Default : Да
Forced : Да

Аудио #2
Идентификатор : 3
Формат : AC-3
Формат/Информация : Audio Coding 3
Идентификатор кодека : A_AC3
Продолжительность : 1 ч. 21 м.
Вид битрейта : Постоянный
Битрейт : 384 Кбит/сек
Каналы : 2 канала
Расположение каналов : Front: L R
Частота : 48,0 КГц
Частота кадров : 31,250 кадров/сек (1536 SPF)
Битовая глубина : 16 бит
Метод сжатия : С потерями
Размер потока : 223 Мбайт (10%)
Язык : English
ServiceKind/String : Complete Main
Default : Нет
Forced : Нет

Текст #1
Идентификатор : 4
Формат : UTF-8
Идентификатор кодека : S_TEXT/UTF8
Идентификатор кодека/Информация : UTF-8 Plain Text
Продолжительность : 1 ч. 20 м.
Битрейт : 46 бит/сек
ElementCount : 992
Размер потока : 27,3 Кбайт (0%)
Язык : English
Default : Нет
Forced : Нет

Текст #2
Идентификатор : 5
Формат : UTF-8
Идентификатор кодека : S_TEXT/UTF8
Идентификатор кодека/Информация : UTF-8 Plain Text
Продолжительность : 1 ч. 20 м.
Битрейт : 50 бит/сек
ElementCount : 1104
Размер потока : 30,0 Кбайт (0%)
Заголовок : SDH
Язык : English
Default : Нет
Forced : Нет

Меню
00:00:00.000 : en:00:00:00.000
00:05:49.558 : en:00:05:49.558
00:12:04.766 : en:00:12:04.766
00:15:52.743 : en:00:15:52.743
00:21:34.877 : en:00:21:34.877
00:26:13.572 : en:00:26:13.572
00:31:02.069 : en:00:31:02.069
00:35:51.232 : en:00:35:51.232
00:41:51.300 : en:00:41:51.300
00:48:38.833 : en:00:48:38.833
00:53:17.611 : en:00:53:17.611
00:58:53.155 : en:00:58:53.155
01:02:25.158 : en:01:02:25.158
01:06:47.670 : en:01:06:47.670
01:12:42.900 : en:01:12:42.900
01:17:07.832 : en:01:17:07.832
скриншот   скриншот  

скриншот   скриншот  

скриншот   скриншот  
pb.wtf



Скачать Восставший из ада 10: Приговор через торрент https://c.radikal.ru/c31/1802/ec/08bc81da4114.png Скачать фильм Восставший из ада 10: Приговор через торрент бесплантно в хорошем качестве Описание: Детективы Шон и Дэвид Картеры расследует дело о жутких серийных убийствах. Объединив усилия с другим детективом, Кристин ... 10 10 6
Торрент: Зарегистрирован [2018-02-20 18:24] · скачан: 350 раз
Статус: T временная
Размер: 2.11 GB
Как cкачать? Как скачать Восставший из ада 10: Приговор через торрент | qTorrent

% Раздел Тема Автор DL S | L
T Фильмы [HD 720p, 1080p] (Хороший звук DUB, MVO) [ 5.57 GB ] Восставший из ада 10: Приговор / Hellraiser: Judgment [2018 BDRip 1080p] MVO [Синема УС] bober100 Скачать
1 | 0
T Фильмы 2018 [DVDrip, WEB-DLRip, HDrip] (DUB, MVO) [ 1.84 GB ] Восставший из ада 10: Приговор / Hellraiser: Judgment [2018 BDRip-AVC] MVO DVO - ExKinoRay Enigma2010 Скачать
1 | 0
T Релизы по Парсеру [Игры, Сериалы и Фильмы и другое...] [ 1.46 GB ] Восставший из ада 10: Приговор / Hellraiser: Judgment [2018 HDRip] MVO -Lexx- Скачать
1 | 0
Отключить всю рекламу на сайте
    Дорогой пользователь! Огромная просьба, поблагодарите релизера, оцените раздачу и оставьте свои комментарий, если Вы скачали Восставший из ада 10: Приговор через торрент бесплатно! Внесите свою лепту в развитие PiratBit!
    Комментировать посты могут только пользователи прошедшие не сложную регистрацию
    Показать сообщения:    

    Восставший из ада 10: Приговор через торрент
    Скачать бесплатно Восставший из ада 10: Приговор
    Восставший из ада 10: Приговор скачать торрент
    Восставший из ада 10: Приговор смотреть онлайн
    Cкачать фильм Восставший из ада 10: Приговор бесплатно
    Восставший из ада 10: Приговор скачать торрент в хорошем качестве
    Восставший из ада 10: Приговор смотреть онлайн бесплатно в хорошем качестве


    Вы не можете начинать темы
    Вы не можете отвечать на сообщения
    Вы не можете редактировать свои сообщения
    Вы не можете удалять свои сообщения
    Вы не можете голосовать в опросах
    Вы не можете прикреплять файлы к сообщениям
    Вы можете скачивать файлы