Ссылка на приватное зеркало всего за 1$. Внимание количество ограничено!!!

OK

1+1

iTunes

мы

OK

1

WEB-DLRip

Джокер

Пифагор

Ведьмак / The Witcher сериал

Лицензия

ПШазам

ОК

Оно 2

iTunes

30
pack

Вам бонус

ВАЖНО

!!Акция!!

Alien_RageХит недели

RePack

Resident Evil 21

ИГРА 18+

pack

RePack

jed

RePack

fifa19

RePack

Assassins Creed: Odyssey

RePack

NEED FOR SPEED™ PAYBACK

4 сезон

9 сезон

Бесстыжие 9 сезон

Все сериалы

все сериалы на PB.wtf

RePack

FAR CRY 5
  

Битва в Арденнах / Wunderland (Стивен Люк) [2018, военный, WEB-DL 720p] MVO ["Синема УС"] pb.wtf

Битва в Арденнах через торрент pb.wtf

Раздают: 1 [ 0 KB/s ]
Размер: 2.89 GB | Добавлен: 1 год 11 мес. назад | Торрент скачан:259 раз
Скачать  

20-02-2018 20:20 Битва в Арденнах Скачать торрент  

Битва в Арденнах / WunderlandГод выпуска: 2018
Страна: США
Жанр: военный
Продолжительность: 01:27:13
Перевод: Любительский (многоголосый) ["Синема УС"]
Субтитры: отсутствуют

Режиссер: Стивен Люк

rating

В ролях:

Том Беренджер, Уэйд Эверетт, Стивен Люк, Аарон Курто, Райан Дж. Гилмер, Эндрю Стекер, Джереми Майкл Перейра, Джозеф Сингер, Коди Флери, Кэйси Силл

Описание:

Рождество 1944 года, немцы предпринимают последнюю попытку оттеснить союзнические войска на западном фронте. Взвод лейтенанта Каппы получает приказ занять и удерживать важный перекресток, не уступить его врагу. Героям предстоит найти веру и силы, чтобы выдержать натиск немцев в бою, получившим название "Битва в Арденнах".

Качество: WEB-DL 720p
Формат: MKV
Видео кодек: H.264
Аудио кодек: AC3

Видео: 4360 Кбит/с, 1280x536
Аудио#1: Русский, (AC3, 2 ch, 384 Кбит/с)

скриншот  скриншот  скриншот  

Общее
Уникальный идентификатор : 211296791779035703749252478673142349705 (0x9EF64826EE004BB089B87461CDF6FF89)
Полное имя : D:\Wunderland.2018.P.WEB-DL.72Op_KOSHARA.mkv
Формат : Matroska
Версия формата : Version 2
Размер файла : 2,89 Гбайт
Продолжительность : 1 ч. 27 м.
Режим общего битрейта : Переменный
Общий поток : 4746 Кбит/сек
Дата кодирования : UTC 2018-02-20 18:55:34
Программа кодирования : mkvmerge v8.3.0 ('Over the Horizon') 64bit
Библиотека кодирования : libebml v1.3.1 + libmatroska v1.4.2

Видео
Идентификатор : 1
Формат : AVC
Формат/Информация : Advanced Video Codec
Профиль формата : High@L4.1
Параметр CABAC формата : Да
Параметр ReFrames формата : 4 кадра
Идентификатор кодека : V_MPEG4/ISO/AVC
Продолжительность : 1 ч. 27 м.
Вид битрейта : Переменный
Битрейт : 4360 Кбит/сек
Максимальный битрейт : 5000 Кбит/сек
Ширина : 1280 пикселей
Высота : 536 пикселей
Соотношение сторон : 2,40:1
Режим частоты кадров : Постоянный
Частота кадров : 23,976 (24000/1001) кадра/сек
Стандарт вещания : Component
Цветовое пространство : YUV
Субдискретизация насыщенности : 4:2:0
Битовая глубина : 8 бит
Тип развёртки : Прогрессивная
Бит/(Пиксели*Кадры) : 0.259
Размер потока : 2,60 Гбайт (90%)
Default : Да
Forced : Нет
Цветовой диапазон : Limited
Основные цвета : BT.709
Характеристики трансфера : BT.709
Коэффициенты матрицы : BT.709

Аудио
Идентификатор : 2
Формат : AC-3
Формат/Информация : Audio Coding 3
Расширение режима : CM (complete main)
Параметр Endianness формата : Big
Идентификатор кодека : A_AC3
Продолжительность : 1 ч. 27 м.
Вид битрейта : Постоянный
Битрейт : 384 Кбит/сек
Каналы : 2 канала
Расположение каналов : Front: L R
Частота : 48,0 КГц
Частота кадров : 31,250 кадров/сек (1536 spf)
Метод сжатия : С потерями
Размер потока : 240 Мбайт (8%)
Default : Да
Forced : Нет

pb.wtf



Скачать Битва в Арденнах через торрент http://img12.lostpic.net/2018/02/20/2e3f1acabdfa83b2a35ead996f6a03e5.jpg Скачать фильм Битва в Арденнах через торрент бесплантно в хорошем качестве Описание: Рождество 1944 года, немцы предпринимают последнюю попытку оттеснить союзнические войска на западном фронте. Взвод лейтенанта ... 7.6 10 8
Торрент: Зарегистрирован [2018-02-20 20:20] · скачан: 259 раз
Статус: T временная
Размер: 2.89 GB
Как cкачать? Как скачать Битва в Арденнах через торрент | qTorrent

% Раздел Тема Автор DL S | L
T Фильмы (мультфильмы) cо спонсором показа (Новинки AVI/MKV) [ 1.37 GB ] Битва в Арденнах / Wunderland [2018 военный WEB-DLRip] MVO ["Синема УС"] bober100 Скачать
1 | 0

28-11-2019 20:33  

Отключить всю рекламу на сайте

21-02-2018 00:30 Битва в Арденнах Скачать торрент  

бой за перекресток у пендосов называется БИТВААААpb.wtf



21-02-2018 02:09 Битва в Арденнах Скачать торрент  

Да, обычно захватывают стратегические высоты, с которых желательно держать под контролем все прилегающие коммуникации, но пиндосы, блеать, зОхватывают перекрестки... Посмотрел бы я, где бы сейчас было СШП, если бы восточный фронт воевал так же, как западный.pb.wtf



21-02-2018 04:59 Битва в Арденнах Скачать торрент  

Suicide297 писал(а):

Посмотрел бы я, где бы сейчас было СШП, если бы восточный фронт воевал так же, как западный.

ну дык "Wolfenstein II: The New Colossus" же наглядно показываетpb.wtf



21-02-2018 13:00 Битва в Арденнах Скачать торрент  

Героическое Дерьмо- капитана америка. У амеров вообще имеются геройские поступки в войнах?pb.wtf



22-02-2018 21:03 Битва в Арденнах Скачать торрент  

Мдя, такой лажи уже давно не смотрел. Америкосы в своем репертуаре, несколько бойцов с автоматами вылезли из окоп во весь рост и так играюсь косят роту немцев...pb.wtf



30-03-2018 14:23 Битва в Арденнах Скачать торрент  

Отличный фильм,американцы суперpb.wtf



    Дорогой пользователь! Огромная просьба, поблагодарите релизера, оцените раздачу и оставьте свои комментарий, если Вы скачали Битва в Арденнах через торрент бесплатно! Внесите свою лепту в развитие PiratBit!
    Комментировать посты могут только пользователи прошедшие не сложную регистрацию
    Показать сообщения:    

    Битва в Арденнах через торрент
    Скачать бесплатно Битва в Арденнах
    Битва в Арденнах скачать торрент
    Битва в Арденнах смотреть онлайн
    Cкачать фильм Битва в Арденнах бесплатно
    Битва в Арденнах скачать торрент в хорошем качестве
    Битва в Арденнах смотреть онлайн бесплатно в хорошем качестве


    Вы не можете начинать темы
    Вы не можете отвечать на сообщения
    Вы не можете редактировать свои сообщения
    Вы не можете удалять свои сообщения
    Вы не можете голосовать в опросах
    Вы не можете прикреплять файлы к сообщениям
    Вы можете скачивать файлы