Ссылка на приватное зеркало нашего сайта всего за 1$. Внимание количество ограничено!!!

2 сезон

iTunes

1 сезон

1

2 сезон

2 сезон

iTunes

1 сезон

RePack

30

Ultimate

ВАЖНО

ИГРА 18+

pack

RePack

MK11
pack

Забери бонус

RePack

jed

!!Акция!!

Alien_Rage

RePack

fifa19

RePack

Assassins Creed: Odyssey

RePack

NEED FOR SPEED™ PAYBACK

4 сезон

9 сезон

Бесстыжие 9 сезон

Все сериалы

все сериалы на PB.wtf

RePack

FAR CRY 5
  

Камелот / Camelot / Сезон: 1 / Серии: 1-10 из 10 (Микаэл Саломон, Стефан Шварц, Киаран Доннелли) [2011, фэнтези, драма, BDRip 720p] 3xMVO [LostFilm, AlexFilm, BaibaKo] pb.wtf

Камелот через торрент pb.wtf

Размер: 28.67 GB | Добавлен: 2 года 9 мес. назад | Торрент скачан:28 раз
Скачать  

21-02-2018 04:24 Камелот Скачать торрент  

Камелот / CamelotИнформация о фильме:

Название: Камелот
Оригинальное название: Camelot
Год выпуска: 2011 (1 сезон)
Страна: Ирландия, США, Великобритания, Канада / Ecosse Films, GK Films, Canadian Broadcasting Corporation (CBC)
Жанр: фэнтези, драма
Продолжительность: ~ 00:50:00 серия
Перевод (ы):

Перевод 1: Профессиональный (многоголосый, закадровый) - LostFilm
Перевод 2: Профессиональный (многоголосый, закадровый) - AlexFilm
Перевод 3: Профессиональный (многоголосый, закадровый) - BaibaKo
✦ Примечание: Без рекламы!

Субтитры: Русские, английские

Режиссер: Микаэл Саломон, Стефан Шварц, Киаран Доннелли

rating

В ролях:

Джозеф Файнс, Джейми Кэмпбелл Бауэр, Тэмзин Эджертон, Питер Муни, Филип Уинчестер, Ева Грин, Диармэйд Мурта, Клайв Стэнден, Клер Форлани, Ямал Дауни и др.

Описание:

Внезапная смерть короля Утера Пендрагона грозит привести Британию к хаосу. После видения Мерлина о тёмном будущем страны, волшебник решает помочь сыну Утера Артуру взойти на престол и победить холодную и амбициозную волшебницу Моргану, сводную сестру Артура.

Информация о файле:

Качество: BDRip 720p
Формат: MKV
Видео кодек: H.264
Аудио кодек: AC3

Видео: ~ 5700 kbps, 1280x720 (16:9), 23.976 fps
Аудио#1 RUS: AC3, 48 KHz, 6 ch, 640 kbps -LostFilm
Аудио#2 RUS: AC3, 48 KHz, 6 ch, 640 kbps -AlexFilm
Аудио#3 RUS: AC3, 48 KHz, 6 ch, 640 kbps -BaibaKo
Аудио#4 ENG: AC3, 48 KHz, 6 ch, 640 kbps


скриншот   скриншот   скриншот  

Общее
Уникальный идентификатор : 208276772127727163993860486619712643919 (0x9CB0A5AFF47CB779B73BD31ADFB6E34F)
Полное имя : D:\Camelot.S01.720p.BluRay.3xRus.Eng.HDCLUB\Camelot.S01E01.720p.BluRay.3xRus.Eng.HDCLUB.mkv
Формат : Matroska
Версия формата : Version 2
Размер файла : 2,86 Гбайт
Продолжительность : 50 м. 44 с.
Общий поток : 8082 Кбит/сек
Название фильма : Camelot [Season 1] (2011) - Release for HDCLUB
Дата кодирования : UTC 2011-09-17 20:13:17
Программа кодирования : mkvmerge v4.9.1 ('Ich will') сборка от Jul 11 2011 23:53:15
Библиотека кодирования : libebml v1.2.1 + libmatroska v1.1.1

Видео
Идентификатор : 1
Формат : AVC
Формат/Информация : Advanced Video Codec
Профиль формата : High@L4.1
Параметр CABAC формата : Да
Параметр ReFrames формата : 5 кадров
Идентификатор кодека : V_MPEG4/ISO/AVC
Продолжительность : 50 м. 44 с.
Битрейт : 5620 Кбит/сек
Ширина : 1280 пикселей
Высота : 720 пикселей
Соотношение сторон : 16:9
Режим частоты кадров : Постоянный
Частота кадров : 23,976 (24000/1001) кадра/сек
Цветовое пространство : YUV
Субдискретизация насыщенности : 4:2:0
Битовая глубина : 8 бит
Тип развёртки : Прогрессивная
Бит/(Пиксели*Кадры) : 0.250
Размер потока : 1,90 Гбайт (66%)
Заголовок : Season 1, Episode 1: Homecoming / Возвращение домой - Release for HDCLUB
Библиотека кодирования : x264 core 116 r2074 2641b9e
Настройки программы : cabac=1 / ref=5 / deblock=1:0:0 / analyse=0x3:0x113 / me=umh / subme=8 / psy=1 / psy_rd=1.00:0.00 / mixed_ref=1 / me_range=16 / chroma_me=1 / trellis=1 / 8x8dct=1 / cqm=0 / deadzone=21,11 / fast_pskip=1 / chroma_qp_offset=-2 / threads=12 / sliced_threads=0 / nr=0 / decimate=1 / interlaced=0 / bluray_compat=0 / constrained_intra=0 / bframes=3 / b_pyramid=2 / b_adapt=2 / b_bias=0 / direct=3 / weightb=1 / open_gop=0 / weightp=2 / keyint=240 / keyint_min=24 / scenecut=40 / intra_refresh=0 / rc_lookahead=50 / rc=2pass / mbtree=1 / bitrate=5520 / ratetol=1.0 / qcomp=0.60 / qpmin=0 / qpmax=69 / qpstep=4 / cplxblur=20.0 / qblur=0.5 / ip_ratio=1.40 / aq=1:1.00
Язык : English
Default : Да
Forced : Нет

Аудио #1
Идентификатор : 2
Формат : AC-3
Формат/Информация : Audio Coding 3
Расширение режима : CM (complete main)
Параметр Endianness формата : Big
Идентификатор кодека : A_AC3
Продолжительность : 50 м. 44 с.
Вид битрейта : Постоянный
Битрейт : 640 Кбит/сек
Каналы : 6 каналов
Расположение каналов : Front: L C R, Side: L R, LFE
Частота : 48,0 КГц
Частота кадров : 31,250 кадров/сек (1536 spf)
Метод сжатия : С потерями
Размер потока : 232 Мбайт (8%)
Заголовок : LostFilm
Язык : Russian
Default : Да
Forced : Нет

Аудио #2
Идентификатор : 3
Формат : AC-3
Формат/Информация : Audio Coding 3
Расширение режима : CM (complete main)
Параметр Endianness формата : Big
Идентификатор кодека : A_AC3
Продолжительность : 50 м. 44 с.
Вид битрейта : Постоянный
Битрейт : 640 Кбит/сек
Каналы : 6 каналов
Расположение каналов : Front: L C R, Side: L R, LFE
Частота : 48,0 КГц
Частота кадров : 31,250 кадров/сек (1536 spf)
Метод сжатия : С потерями
Размер потока : 232 Мбайт (8%)
Заголовок : AlexFilm
Язык : Russian
Default : Нет
Forced : Нет

Аудио #3
Идентификатор : 4
Формат : AC-3
Формат/Информация : Audio Coding 3
Расширение режима : CM (complete main)
Параметр Endianness формата : Big
Идентификатор кодека : A_AC3
Продолжительность : 50 м. 44 с.
Вид битрейта : Постоянный
Битрейт : 640 Кбит/сек
Каналы : 6 каналов
Расположение каналов : Front: L C R, Side: L R, LFE
Частота : 48,0 КГц
Частота кадров : 31,250 кадров/сек (1536 spf)
Метод сжатия : С потерями
Размер потока : 232 Мбайт (8%)
Заголовок : BaibaKo
Язык : Russian
Default : Нет
Forced : Нет

Аудио #4
Идентификатор : 5
Формат : AC-3
Формат/Информация : Audio Coding 3
Расширение режима : CM (complete main)
Параметр Endianness формата : Big
Идентификатор кодека : A_AC3
Продолжительность : 50 м. 44 с.
Вид битрейта : Постоянный
Битрейт : 640 Кбит/сек
Каналы : 6 каналов
Расположение каналов : Front: L C R, Side: L R, LFE
Частота : 48,0 КГц
Частота кадров : 31,250 кадров/сек (1536 spf)
Метод сжатия : С потерями
Размер потока : 232 Мбайт (8%)
Язык : English
Default : Нет
Forced : Нет

Текст #1
Идентификатор : 6
Формат : UTF-8
Идентификатор кодека : S_TEXT/UTF8
Идентификатор кодека/Информация : UTF-8 Plain Text
Язык : Russian
Default : Нет
Forced : Нет

Текст #2
Идентификатор : 7
Формат : UTF-8
Идентификатор кодека : S_TEXT/UTF8
Идентификатор кодека/Информация : UTF-8 Plain Text
Язык : English
Default : Нет
Forced : Нет

Меню
00:00:00.000 : en:00:00:00.000
00:07:51.221 : en:00:07:51.221
00:18:04.292 : en:00:18:04.292
00:26:35.427 : en:00:26:35.427
00:36:37.779 : en:00:36:37.779
00:49:42.646 : en:00:49:42.646

pb.wtf



Скачать Камелот через торрент http://s017.radikal.ru/i401/1511/e5/ea0bf5e9b03d.jpg Скачать фильм Камелот через торрент бесплантно в хорошем качестве Описание:Внезапная смерть короля Утера Пендрагона грозит привести Британию к хаосу. После видения Мерлина о тёмном будущем страны, ... 10 10 6
Info! Золотая раздача, скачанное не засчитывается.
Торрент: Зарегистрирован [2018-02-21 04:24] · скачан: 28 раз
Статус: √ проверено
Размер: 28.67 GB
Как cкачать? Как скачать Камелот через торрент | qTorrent

% Раздел Тема Автор DL S | L
Зарубежные сериалы [ 13.65 GB ] Кат / Camelot / Сезон: 1 / Серии: 1-10 из 10 [2011 WEB-DL 1080p] MVO [Студия "Позитив"] bober100 Скачать
1 | 0
Зарубежные сериалы [ 4.89 GB ] Кат / Camelot [1 сезон - 10 серий из 10] [Ciaran Donnelly] [2011 исторический образовательный WEB-DLRip] [LostFilm] Romeo0502 Скачать
1 | 0

28-11-2019 20:33  

Отключить всю рекламу на сайте

    Дорогой пользователь! Огромная просьба, поблагодарите релизера, оцените раздачу и оставьте свои комментарий, если Вы скачали Камелот через торрент бесплатно! Внесите свою лепту в развитие PiratBit!
    Комментировать посты могут только пользователи прошедшие не сложную регистрацию
    Показать сообщения:    

    Камелот через торрент
    Скачать бесплатно Камелот
    Камелот скачать торрент
    Камелот смотреть онлайн
    Cкачать фильм Камелот бесплатно
    Камелот скачать торрент в хорошем качестве
    Камелот смотреть онлайн бесплатно в хорошем качестве


    Вы не можете начинать темы
    Вы не можете отвечать на сообщения
    Вы не можете редактировать свои сообщения
    Вы не можете удалять свои сообщения
    Вы не можете голосовать в опросах
    Вы не можете прикреплять файлы к сообщениям
    Вы можете скачивать файлы