Ссылка на приватное зеркало нашего сайта всего за 1$. Внимание количество ограничено!!!

2 сезон

iTunes

1 сезон

1

iTunes

iTunes

iTunes

1 сезон

RePack

30

ИГРА 18+

pack

ВАЖНО

!!Акция!!

Alien_RageХит недели

RePack

MK11
pack

Забери бонус

RePack

jed

!!Акция!!

Alien_Rage

RePack

fifa19

RePack

Assassins Creed: Odyssey

RePack

NEED FOR SPEED™ PAYBACK

4 сезон

9 сезон

Бесстыжие 9 сезон

Все сериалы

все сериалы на PB.wtf

RePack

FAR CRY 5
  

Когда меня полюбишь ты / Серии 1-2 из 2 (Роман Бровко) [2017, Мелодрама, SATRip] pb.wtf

Когда меня полюбишь ты через торрент pb.wtf

Размер: 1.37 GB | Добавлен: 2 года 8 мес. назад | Торрент скачан:42 раза
Скачать  

21-02-2018 06:52 Когда меня полюбишь ты Скачать торрент  

Когда меня полюбишь тыГод выпуска: 2017
Страна: Украина
Жанр: Мелодрама
Продолжительность: 2 x ~ 00:46:00
Перевод: Не требуется
Субтитры: Украинские

Режиссер: Роман Бровко

В ролях:

Анна Адамович, Андрей Финягин, Денис Роднянский, Григорий Боковенко, Макар Тихомиров

Описание:

Успешный бизнесмен Евгений Головченко приезжает из столицы в маленький провинциальный город, чтобы купить и реорганизовать местный завод. Но бизнес быстро отступает на второй план: Евгений встречает юную красавицу Аню и решает во что бы то ни стало покорить ее сердце. Однако все привычные методы обольщения на девушку не действуют… Сумеет ли Евгений всё-таки влюбить в себя Аню? И кто она для него – очередной приз, который нужно завоевать, или первая настоящая любовь?

Качество: SATRip
Формат: AVI

Видео: XviD, ~ 1930 Кбит/с, 720x400
Аудио: AC3, 2 ch, 192 Кбит/с
скриншот  скриншот  скриншот  

Общее
Полное имя : D:\Когда меня полюбишь ты.2017.SATRip.Files-x\01.Когда меня полюбишь ты.2017.SATRip.Files-x.avi
Формат : AVI
Формат/Информация : Audio Video Interleave
Размер файла : 699 Мбайт
Продолжительность : 45 м. 47 с.
Общий поток : 2135 Кбит/сек
Программа кодирования : VirtualDubMod 1.5.10.3 | www.virtualdub-fr.org || (build 2550/release)
Библиотека кодирования : VirtualDubMod build 2550/release

Видео
Идентификатор : 0
Формат : MPEG-4 Visual
Профиль формата : Advanced Simple@L5
Параметр BVOP формата : 1
Параметр QPel формата : Да
Параметр GMC формата : Без точки перехода
Параметр матрицы формата : Выборочная
Идентификатор кодека : XVID
Идентификатор кодека/Подсказка : XviD
Продолжительность : 45 м. 47 с.
Битрейт : 1934 Кбит/сек
Ширина : 720 пикселей
Высота : 400 пикселей
Соотношение сторон : 16:9
Частота кадров : 25,000 кадров/сек
Цветовое пространство : YUV
Субдискретизация насыщенности : 4:2:0
Битовая глубина : 8 бит
Тип развёртки : Прогрессивная
Метод сжатия : С потерями
Бит/(Пиксели*Кадры) : 0.269
Размер потока : 633 Мбайт (91%)
Библиотека кодирования : XviD 73

Аудио
Идентификатор : 1
Формат : AC-3
Формат/Информация : Audio Coding 3
Расширение режима : CM (complete main)
Параметр Endianness формата : Big
Идентификатор кодека : 2000
Продолжительность : 45 м. 47 с.
Вид битрейта : Постоянный
Битрейт : 192 Кбит/сек
Каналы : 2 канала
Расположение каналов : Front: L R
Частота : 48,0 КГц
Частота кадров : 31,250 кадров/сек (1536 spf)
Метод сжатия : С потерями
Размер потока : 62,9 Мбайт (9%)
Выравнивание : Разделение по промежуткам
Продолжительность промежутка : 40 мс. (1,00 видеокадр)
Время предзагрузки промежутка : 500 мс.

pb.wtf



Скачать Когда меня полюбишь ты через торрент http://i103.fastpic.ru/big/2018/0221/24/bcd968ac0987ae093de3e024beb4c624.jpg Скачать фильм Когда меня полюбишь ты через торрент бесплантно в хорошем качестве Описание: Успешный бизнесмен Евгений Головченко приезжает из столицы в маленький провинциальный город, чтобы купить и реорганизовать ... 10 10 3
Торрент: Зарегистрирован [2018-02-21 06:52] · скачан: 42 раз
Статус: √ проверено
Размер: 1.37 GB
Как cкачать? Как скачать Когда меня полюбишь ты через торрент | qTorrent

28-11-2019 20:33  

Отключить всю рекламу на сайте

    Дорогой пользователь! Огромная просьба, поблагодарите релизера, оцените раздачу и оставьте свои комментарий, если Вы скачали Когда меня полюбишь ты через торрент бесплатно! Внесите свою лепту в развитие PiratBit!
    Комментировать посты могут только пользователи прошедшие не сложную регистрацию
    Показать сообщения:    

    Когда меня полюбишь ты через торрент
    Скачать бесплатно Когда меня полюбишь ты
    Когда меня полюбишь ты скачать торрент
    Когда меня полюбишь ты смотреть онлайн
    Cкачать фильм Когда меня полюбишь ты бесплатно
    Когда меня полюбишь ты скачать торрент в хорошем качестве
    Когда меня полюбишь ты смотреть онлайн бесплатно в хорошем качестве


    Вы не можете начинать темы
    Вы не можете отвечать на сообщения
    Вы не можете редактировать свои сообщения
    Вы не можете удалять свои сообщения
    Вы не можете голосовать в опросах
    Вы не можете прикреплять файлы к сообщениям
    Вы можете скачивать файлы