Ссылка на приватное зеркало нашего сайта всего за 1$. Внимание количество ограничено!!!

2 сезон

iTunes

1 сезон

1

iTunes

iTunes

iTunes

1 сезон

RePack

30

ИГРА 18+

pack

ВАЖНО

!!Акция!!

Alien_RageХит недели

RePack

MK11
pack

Забери бонус

RePack

jed

!!Акция!!

Alien_Rage

RePack

fifa19

RePack

Assassins Creed: Odyssey

RePack

NEED FOR SPEED™ PAYBACK

4 сезон

9 сезон

Бесстыжие 9 сезон

Все сериалы

все сериалы на PB.wtf

RePack

FAR CRY 5
  

Команда Б / Сезон: 1 / Серии: 1-20 из 20 (Арман Геворгян) [2018, комедия, WEB-DL 720p] pb.wtf

Команда Б через торрент pb.wtf

Размер: 9.39 GB | Добавлен: 2 года 7 мес. назад | Торрент скачан:145 раз
Скачать  

12-02-2018 16:18 Команда Б Скачать торрент  

Команда БГод выпуска: 2018
Страна: Россия
Жанр: комедия
Продолжительность: ~ 00:27:00
Субтитры: отсутствуют

Режиссер: Арман Геворгян



В ролях:

Владимир Яглыч, Михаил Ефремов, Настасья Самбурская, Оскар Кучера, Карина Андоленко, Ян Цапник, Михаил Тарабукин, Валерия Федорович, Сергей Баталов, Борис Дергачев, Евгения Ахременко, Даниил Муравьев-Изотов, Павел Крайнов

Описание:

Генерал Брусницын, спасая племянника Мишу от тюрьмы, поручает ему возглавить команду обычных ребят, отобранных для полёта на Луну — команду «Б». Он уверен, что эксперимент провалится и «лузеры» никуда не полетят. Но пилот-экстремал Миша, научный сотрудник Света, солдат в юбке Саша, красавчик-качок Егор и врач-неудачник Стас готовы обойти профессионалов из команды «А» и покорить космос.

Качество: WEB-DL 720p
Формат: MKV

Видео: MPEG-4 AVC, ~ 2565 Кбит/с, 1280x720
Аудио: AC3, 2 ch, 192 Кбит/с
скриншот  скриншот  скриншот  

Общее
Уникальный идентификатор : 187185734960865078793363332587091995103 (0x8CD2A9453605104EA87129BBF77529DF)
Полное имя : D:\Komanda.B.2017.WEB-DL.(720p).Getty\Komanda.B.e01.2017.WEB-DL.(720p).Getty.mkv
Формат : Matroska
Версия формата : Version 4 / Version 2
Размер файла : 542 Мбайт
Продолжительность : 27 м. 28 с.
Общий поток : 2758 Кбит/сек
Название фильма : Komanda.B.e01.2017.WEB-DL.(720p).Getty
Дата кодирования : UTC 2018-02-12 14:29:23
Программа кодирования : mkvmerge v7.8.0 ('River Man') 32bit built on Mar 27 2015 16:18:02
Библиотека кодирования : libebml v1.3.1 + libmatroska v1.4.2

Видео
Идентификатор : 1
Формат : AVC
Формат/Информация : Advanced Video Codec
Профиль формата : High@L4
Параметр CABAC формата : Да
Параметр ReFrames формата : 4 кадра
Идентификатор кодека : V_MPEG4/ISO/AVC
Продолжительность : 27 м. 28 с.
Битрейт : 2565 Кбит/сек
Ширина : 1280 пикселей
Высота : 720 пикселей
Соотношение сторон : 16:9
Режим частоты кадров : Постоянный
Частота кадров : 25,000 кадров/сек
Цветовое пространство : YUV
Субдискретизация насыщенности : 4:2:0
Битовая глубина : 8 бит
Тип развёртки : Прогрессивная
Бит/(Пиксели*Кадры) : 0.111
Размер потока : 504 Мбайт (93%)
Default : Да
Forced : Нет

Аудио
Идентификатор : 2
Формат : AC-3
Формат/Информация : Audio Coding 3
Расширение режима : CM (complete main)
Параметр Endianness формата : Big
Идентификатор кодека : A_AC3
Продолжительность : 27 м. 28 с.
Вид битрейта : Постоянный
Битрейт : 192 Кбит/сек
Каналы : 2 канала
Расположение каналов : Front: L R
Частота : 48,0 КГц
Частота кадров : 31,250 кадров/сек (1536 spf)
Метод сжатия : С потерями
Размер потока : 37,7 Мбайт (7%)
Default : Да
Forced : Нет

Внимание! Раздача ведётся путём добавления новых серий; при каждом добавлении создаётся новый торрент.
Чтобы начать докачку новой серии, пользователям необходимо сделать следующее:
1. Остановить скачивание;
2. Удалить старый торрент у себя из клиента (старые серии удалять не надо);
3. Скачать новый торрент и запустить его у себя в клиенте вместо старого, при этом указать клиенту путь в старую папку куда и должно происходить скачивание новых серий. Ваш клиент при этом должен произвести хеширование (проверку) старой папки и будет докачивать только те серии, которых у вас ещё нет. Старые серии при этом не удаляются, а продолжают раздаваться! Eсли вы уже удалили старые серии, то предотвратить повторную закачку старых серий можно, отжав галочку в соответствующих местах при запуске нового торрента.
pb.wtf



Скачать Команда Б через торрент http://img12.lostpic.net/2018/02/12/ed37602de4e6bedeb76addff50658d62.jpg Скачать фильм Команда Б через торрент бесплантно в хорошем качестве Описание: Генерал Брусницын, спасая племянника Мишу от тюрьмы, поручает ему возглавить команду обычных ребят, отобранных для полёта на Луну ... 9.4 10 12
Info! Серебряная раздача, засчитывается только 50% скачанного.
Торрент: Зарегистрирован [2018-03-13 04:11] · скачан: 145 раз
Статус: √ проверено
Размер: 9.39 GB
Как cкачать? Как скачать Команда Б через торрент | qTorrent

% Раздел Тема Автор DL S | L
Наши сериалы [ 5.97 GB ] Команда Б / Сезон: 1 / Серии 1-20 из 20 [2017 WEB-DLRip] GEKADOL Скачать
1 | 0
Наши сериалы [ 18.04 GB ] Команда Б / Сезон: 1 / Серии: 1-20 из 20 [2018 WEB-DL 1080p] bober100 Скачать
1 | 0
Наши сериалы [ 6.11 GB ] Команда Б / Сезон: 1 / Серии: 1-20 из 20 [2018 WEB-DLRip-AVC] bober100 Скачать
1 | 0


Последний раз редактировалось: bober100 (2018-03-13 04:11), всего редактировалось 4 раз(а)

28-11-2019 20:33  

Отключить всю рекламу на сайте

19-02-2018 18:15 Команда Б Скачать торрент  

Сериал более менее ..на раз посмотреть можно...pb.wtf



    Дорогой пользователь! Огромная просьба, поблагодарите релизера, оцените раздачу и оставьте свои комментарий, если Вы скачали Команда Б через торрент бесплатно! Внесите свою лепту в развитие PiratBit!
    Комментировать посты могут только пользователи прошедшие не сложную регистрацию
    Показать сообщения:    

    Команда Б через торрент
    Скачать бесплатно Команда Б
    Команда Б скачать торрент
    Команда Б смотреть онлайн
    Cкачать фильм Команда Б бесплатно
    Команда Б скачать торрент в хорошем качестве
    Команда Б смотреть онлайн бесплатно в хорошем качестве


    Вы не можете начинать темы
    Вы не можете отвечать на сообщения
    Вы не можете редактировать свои сообщения
    Вы не можете удалять свои сообщения
    Вы не можете голосовать в опросах
    Вы не можете прикреплять файлы к сообщениям
    Вы можете скачивать файлы