новый адрес
Мега распродажа FORZA HORIZON 4 ULTIMATE+ВСЕ DLC+ОНЛАЙН всего за 499р. 349 руб. (супер цена). Внимание количество ограничено!!!

iTunes

1+1

iTunes

мы

iTunes

1

iTunes

Чернобыль

iTunes

Ральф против интернета

Лицензия

ПШазам

Лицензия

Игра престолов

Лицензия

30
pack

ВАЖНО

!!Акция!!

Alien_RageХит недели

RePack

Resident Evil 21

ИГРА 18+

pack

RePack

Metro:Exodus

!!Акция!!

Alien_Rage

RePack

fifa19

RePack

Assassins Creed: Odyssey

RePack

NEED FOR SPEED™ PAYBACK

3 сезон

9 сезон

Бесстыжие 9 сезон

Все сериалы

все сериалы на PB.wtf

RePack

FAR CRY 5
Ребята, катастрофически не хватает 1900р. для оплаты серверов за Октябрь (всвязи с блокировками трафик упал в 3 раза), 1-2р., выручайте.
  

Балтийское небо (Владимир Вeнгеров) [1960, СССР, драма, военный, история, DVDRip от AVP Studio] pb.wtf

Балтийское небо через торрент pb.wtf

Размер: 2.18 GB | Добавлен: 1 год 8 мес. назад | Торрент скачан:20 раз
Скачать  

21-02-2018 08:13 Балтийское небо Скачать торрент  

Балтийское небо
Страна: СССР
Производство: Ленфильм

Жанр: драма, военный, история
Год выпуска: 1960
Продолжительность: 02:42:25 (01:24:15 + 01:18:10)

Перевод: Не требуется
Cубтитры: нет
Оригинальная аудиодорожка: русский

Режиссер: Владимир Вeнгеров

В ролях:
Пётр Глебов, Всеволод Платов, Михаил Ульянов, Ролан Быков, Михаил Козаков, Николай Ключнев, Эве Киви, Инна Кондратьева, Александр Виолинов, Людмила Гурченко, Виктор Перевалов, Фёдор Шмаков, Павел Усовниченко, Пантелеймон Крымов, Олег Борисов, Павел Луспекаев, Владислав Стржельчик...
Об актёрах подробней

Описание:
По одноимённому роману Николая Чуковского о героической битве за балтийское небо в дни Великой Отечественной войны.
Одну из лучших своих киноролей в фильме сыграл 33-летний Павел Луспекаев. Его лётчик Кузнецов, дебошир, исключённый за злоупотребление спиртным из военного училища, на фронте получает боевую закалку, исправляется и геройски погибает. Важным аспектом фильма является история любви юной ленинградки Сони и лётчика Татаренко. Дуэт двух молодых, но опытных мастеров экрана Людмилы Гурченко и Олега Борисова стал, по мнению критиков, эмоциональным украшением фильма, оптимистической и нежной ноткой, расцветившей фабулу киноэкранизации.

Источник: DVD5 R5
Качество видео: DVDRip
Формат видео: AVI

Видео: 688x512 (4:3), 25,000 кадров/сек, XviD ~ 1720 Кбит/сек, 0.195 bit/pixel
Аудио: 48 kHz, Dolby Digital AC3 2.0, 192 kbps

Раздача от:
Общее
Полное имя : Baltiyskoe.nebo.1960.DVDRip_[New-team]_by_AVP_Studio\Серия 01.avi
Формат : AVI
Формат/Информация : Audio Video Interleave
Размер файла : 1,13 Гбайт
Продолжительность : 1 ч. 24 м.
Общий поток : 1922 Кбит/сек
Программа кодирования : VirtualDubMod 1.5.10.3 | www.virtualdub-fr.org || (build 2550/release)
Библиотека кодирования : VirtualDubMod build 2550/release

Видео
Идентификатор : 0
Формат : MPEG-4 Visual
Профиль формата : Advanced Simple@L5
Настройки формата : BVOP1 / Custom Matrix
Параметр BVOP формата : 1
Параметр QPel формата : Нет
Параметр GMC формата : Без точки перехода
Параметр матрицы формата : Выборочная
Идентификатор кодека : XVID
Идентификатор кодека/Подсказка : XviD
Продолжительность : 1 ч. 24 м.
Битрейт : 1720 Кбит/сек
Ширина : 688 пикселей
Высота : 512 пикселей
Соотношение сторон : 4:3
Частота кадров : 25,000 кадров/сек
Цветовое пространство : YUV
Субдискретизация насыщенности : 4:2:0
Битовая глубина : 8 бит
Тип развёртки : Прогрессивная
Метод сжатия : С потерями
Бит/(Пиксели*Кадры) : 0.195
Размер потока : 1,01 Гбайт (90%)
Библиотека кодирования : XviD 73

Аудио
Идентификатор : 1
Формат : AC-3
Формат/Информация : Audio Coding 3
Идентификатор кодека : 2000
Продолжительность : 1 ч. 24 м.
Вид битрейта : Постоянный
Битрейт : 192 Кбит/сек
Каналы : 2 канала
Расположение каналов : Front: L R
Частота : 48,0 КГц
Частота кадров : 31,250 кадров/сек (1536 SPF)
Битовая глубина : 16 бит
Метод сжатия : С потерями
Размер потока : 116 Мбайт (10%)
Выравнивание : Разделение по промежуткам
Продолжительность промежутка : 40 мс. (1,00 видеокадр)
Время предзагрузки промежутка : 500 мс
pb.wtf



Скачать Балтийское небо через торрент http://i100.fastpic.ru/big/2018/0221/89/4d753d3269efa1e98c78e7332ec08e89.png Скачать фильм Балтийское небо через торрент бесплантно в хорошем качестве Описание:По одноимённому роману Николая Чуковского о героической битве за балтийское небо в дни Великой Отечественной войны.Одну из лучших ... 5 10 1
Info! Золотая раздача, скачанное не засчитывается.
Торрент: Зарегистрирован [2018-02-21 08:13] · скачан: 20 раз
Статус: √ проверено
Размер: 2.18 GB
Как cкачать? Как скачать Балтийское небо через торрент | qTorrent

% Раздел Тема Автор DL S | L
Кино СССР [ 2.18 GB ] Балтийское небо [1960 СССР военный история DVDRip-AVC от AVP Studio] AVP Studio Скачать
1 | 0


>> Регистрируемся здесь <<






Отзывы и комментарии о схеме читаем и пишем здесь: ---> Отзывы и комментарии о схеме

Новые благодарочки в телеграм довольных пользователей:
скриншот   скриншот   скриншот   скриншот   скриншот
    Дорогой пользователь! Огромная просьба, поблагодарите релизера, оцените раздачу и оставьте свои комментарий, если Вы скачали Балтийское небо через торрент бесплатно! Внесите свою лепту в развитие PiratBit!
    Комментировать посты могут только пользователи прошедшие не сложную регистрацию
    Показать сообщения:    

    Балтийское небо через торрент
    Скачать бесплатно Балтийское небо
    Балтийское небо скачать торрент
    Балтийское небо смотреть онлайн
    Cкачать фильм Балтийское небо бесплатно
    Балтийское небо скачать торрент в хорошем качестве
    Балтийское небо смотреть онлайн бесплатно в хорошем качестве


    Вы не можете начинать темы
    Вы не можете отвечать на сообщения
    Вы не можете редактировать свои сообщения
    Вы не можете удалять свои сообщения
    Вы не можете голосовать в опросах
    Вы не можете прикреплять файлы к сообщениям
    Вы можете скачивать файлы