Anonymous, добрый вечер, присоединяйтесь к нам в Telegram!, здесь всегда актуальный адрес сайта, оперативная поддержка и многое другое!

>

5.5

iTunes

7.4

iTunes

7.9

iTunes

1

7.7

1 сезон

6.8

iTunes

7.3

1 сезон

13

6.7

1 сезон

8.3

RePack

30

ULTIMATE

pack

9.9

Лицензия

ВАЖНО

ИГРА 18+

pack

7.3

RePack

MK11

7.7

RePack

jed

7.8

RePack

fifa19

8.5

RePack

RDR2

RePack

NEED FOR SPEED™ PAYBACK

4 сезон

9 сезон

Бесстыжие 9 сезон

Все сериалы

все сериалы на PB.wtf

RePack

FAR CRY 5

Anonymous, добрый вечер, мы катастрофически не успеваем собрать деньги на оплату серверов, помогите нам пожалуйста 5,10,15р., для нас важна любая помощь . В качестве благодарности мы отключим Вам всю рекламу на сайте (укажите свой ник в строку Ваше имя)!

×
  
Magnet ссылка

Властелин колец: Трилогия / The Lord of the Rings: Trilogy [2001-2003, фэнтези, приключения, BDRip-HEVC 720p, 60fps, Extended Edition, Dub + MVO, Original] от R.G. HD-Films pb.wtf

Властелин колец: Трилогия через торрент pb.wtf

Раздают: 10 [ 0 KB/s ]
Размер: 20.85 GB | Добавлен: 3 года 8 мес. назад | Торрент скачан:968 раз
Смотреть онлайн Властелин колец: Трилогия | Скачать    Ребята, помогите собрать деньги на оплату серверов!!!

21-02-2018 10:32 Властелин колец: Трилогия Скачать торрент  

Данные релизы созданы на основе 17-го обновления с применением технологии HEVC.
Властелин колец: Братство кольца / The Lord of the Rings: The Fellowship of the Ring
Год выпуска: 2001
Страна: США, Новая Зеландия
Жанр: фэнтези, приключения
Продолжительность: 03:48:18
Перевод: Дубляж с многоголосыми вставками, Оригинал
Субтитры: Русские (Форс, полные), Английские (Полные)

Режиссер: Питер Джексон

rating

В ролях: Элайджа Вуд (Frodo), Иэн МакКеллен (Gandalf), Вигго Мортенсен (Aragorn), Шон Бин (Boromir), Орландо Блум (Legolas), Джон Рис-Дэвис (Gimli), Иэн Холм (Bilbo), Шон Эстин (Sam), Билли Бойд (Pippin), Доминик Монахэн (Merry), Хьюго Уивинг (Elrond), Кейт Бланшетт (Galadriel)

Описание: Сказания о Средиземье - это хроника Великой войны за Кольцо, войны, длившейся не одну тысячу лет. Тот, кто владел Кольцом, получал Влacть над всеми живыми тварями, но был обязан служить злу.
Тихая деревня, где живут хоббиты. Волшебник Гэндальф, придя на 111-й день рождения к своему старому другу Бильбо Бэггинсу, начинает вести разговор о кольце, которое Бильбо нашел много лет назад. Это кольцо принадлежало когда-то темному властителю Средиземья Саурону, и оно дает большую Влacть своему обладателю. Теперь Саурон хочет вернуть себе Влacть над Средиземьем. Бильбо отдает найденное кольцо своему племяннику Фродо, который пытается научиться справляться с тем страшным могуществом, которое дает ему кольцо...

Качество: BDRip 720p / 60 FPS by Tiberiumsun69
Формат: MKV
Видео кодек: H.265
Аудио кодек: AC3
Видео: HEVC, 1280x696 (1.85:1), 3000 kbps, 60.000 fps, 0.073 bpp
Аудио#1: AC3 / 5.1 / 48 kHz / 448 kbps / 16 bit | Дубляж + MVO Позитив-Мультимедиа на вставки реж.
Аудио#2: AC3 / 5.1 / 48 kHz / 640 kbps / 16 bit | Original
General
Unique ID : 335919964667120839806148890051126453762 (0xFCB7D4F68BBC6DF71719BED703336602)
Complete name : D:\Torrents\Властелин колец BDRip-HEVC 720p 60fps (Ext)\01. Братство кольца.mkv
Format : Matroska
Format version : Version 4 / Version 2
File size : 6.52 GiB
Duration : 3 h 48 min
Overall bit rate : 4 089 kb/s
Movie name : Tiberiumsun69
Encoded date : UTC 2018-02-21 04:42:50
Writing application : mkvmerge v20.0.0 ('I Am The Sun') 64-bit
Writing library : libebml v1.3.5 + libmatroska v1.4.8
Cover : Yes
Attachments : Cover.png

Video
ID : 1
Format : HEVC
Format/Info : High Efficiency Video Coding
Format profile : Main@L4@Main
Codec ID : V_MPEGH/ISO/HEVC
Duration : 3 h 48 min
Bit rate : 2 996 kb/s
Width : 1 280 pixels
Height : 536 pixels
Display aspect ratio : 2.40:1
Frame rate mode : Constant
Frame rate : 60.000 FPS
Color space : YUV
Chroma subsampling : 4:2:0
Bit depth : 8 bits
Bits/(Pixel*Frame) : 0.073
Stream size : 4.78 GiB (73%)
Writing library : x265 2.6+37-1949157705ce:[Windows][MSVC 1912][64 bit] 8bit+10bit+12bit
Encoding settings : cpuid=1173503 / frame-threads=3 / numa-pools=8 / wpp / no-pmode / no-pme / psnr / ssim / log-level=2 / input-csp=1 / input-res=1280x536 / interlace=0 / total-frames=821881 / level-idc=40 / high-tier=1 / uhd-bd=0 / ref=3 / no-allow-non-conformance / no-repeat-headers / annexb / no-aud / no-hrd / info / hash=0 / no-temporal-layers / open-gop / min-keyint=25 / keyint=250 / gop-lookahead=0 / bframes=4 / b-adapt=2 / b-pyramid / bframe-bias=0 / rc-lookahead=20 / lookahead-slices=0 / scenecut=40 / radl=0 / no-intra-refresh / ctu=64 / min-cu-size=8 / no-rect / no-amp / max-tu-size=32 / tu-inter-depth=1 / tu-intra-depth=1 / limit-tu=0 / rdoq-level=0 / dynamic-rd=0.00 / no-ssim-rd / signhide / no-tskip / nr-intra=0 / nr-inter=0 / no-constrained-intra / strong-intra-smoothing / max-merge=2 / limit-refs=3 / no-limit-modes / me=1 / subme=2 / merange=57 / temporal-mvp / weightp / no-weightb / no-analyze-src-pics / deblock=0:0 / sao / no-sao-non-deblock / rd=3 / no-early-skip / rskip / no-fast-intra / no-tskip-fast / no-cu-lossless / no-b-intra / no-splitrd-skip / rdpenalty=0 / psy-rd=2.00 / psy-rdoq=0.00 / no-rd-refine / no-lossless / cbqpoffs=0 / crqpoffs=0 / rc=abr / bitrate=3000 / qcomp=0.60 / qpstep=4 / stats-write=0 / stats-read=0 / ipratio=1.40 / pbratio=1.30 / aq-mode=1 / aq-strength=1.00 / cutree / zone-count=0 / no-strict-cbr / qg-size=32 / no-rc-grain / qpmax=69 / qpmin=0 / no-const-vbv / sar=1 / overscan=0 / videoformat=5 / range=0 / colorprim=2 / transfer=2 / colormatrix=2 / chromaloc=0 / display-window=0 / max-cll=0,0 / min-luma=0 / max-luma=255 / log2-max-poc-lsb=8 / vui-timing-info / vui-hrd-info / slices=1 / no-opt-qp-pps / no-opt-ref-list-length-pps / no-multi-pass-opt-rps / scenecut-bias=0.05 / no-opt-cu-delta-qp / no-aq-motion / no-hdr / no-hdr-opt / no-dhdr10-opt / analysis-reuse-level=5 / scale-factor=0 / refine-intra=0 / refine-inter=0 / refine-mv=0 / no-limit-sao / ctu-info=0 / no-lowpass-dct / refine-mv-type=0 / copy-pic=1
Default : Yes
Forced : No

Audio #1
ID : 2
Format : AC-3
Format/Info : Audio Coding 3
Codec ID : A_AC3
Duration : 3 h 48 min
Bit rate mode : Constant
Bit rate : 448 kb/s
Channel(s) : 6 channels
Channel positions : Front: L C R, Side: L R, LFE
Sampling rate : 48.0 kHz
Frame rate : 31.250 FPS (1536 SPF)
Bit depth : 16 bits
Compression mode : Lossy
Stream size : 732 MiB (11%)
Title : Дубляж + MVO Позитив-Мультимедиа [на расширенные места]
Language : Russian
Service kind : Complete Main
Default : Yes
Forced : No

Audio #2
ID : 3
Format : AC-3
Format/Info : Audio Coding 3
Codec ID : A_AC3
Duration : 3 h 48 min
Bit rate mode : Constant
Bit rate : 640 kb/s
Channel(s) : 6 channels
Channel positions : Front: L C R, Side: L R, LFE
Sampling rate : 48.0 kHz
Frame rate : 31.250 FPS (1536 SPF)
Bit depth : 16 bits
Compression mode : Lossy
Stream size : 1.02 GiB (16%)
Title : Оригинал
Language : English
Service kind : Complete Main
Default : No
Forced : No

Text #1
ID : 4
Format : UTF-8
Codec ID : S_TEXT/UTF8
Codec ID/Info : UTF-8 Plain Text
Duration : 2 h 51 min
Bit rate : 2 b/s
Count of elements : 59
Stream size : 3.68 KiB (0%)
Title : форсированные
Language : Russian
Default : Yes
Forced : No

Text #2
ID : 5
Format : UTF-8
Codec ID : S_TEXT/UTF8
Codec ID/Info : UTF-8 Plain Text
Duration : 3 h 19 min
Bit rate : 64 b/s
Count of elements : 1738
Stream size : 94.4 KiB (0%)
Title : полные
Language : Russian
Default : No
Forced : No

Text #3
ID : 6
Format : UTF-8
Codec ID : S_TEXT/UTF8
Codec ID/Info : UTF-8 Plain Text
Duration : 3 h 19 min
Bit rate : 40 b/s
Count of elements : 1820
Stream size : 58.6 KiB (0%)
Title : Полные
Language : English
Default : No
Forced : No

Menu
00:00:00.000 : en: 1. Prologue: One Ring To Rule Them All...
00:07:36.790 : en: 2. Concerning Hobbits
00:10:35.552 : en: 3. The Shire
00:15:39.856 : en: 4. Very Old Friends
00:19:58.489 : en: 5. A Long-expected Party
00:25:32.614 : en: 6. Farewell Dear Bilbo
00:29:57.379 : en: 7. Keep It Secret, Keep It Safe
00:32:10.679 : en: 8. The Account Of Isildur
00:34:51.798 : en: 9. At The Green Dragon
00:36:18.176 : en:10. The Shadow of the Past
00:45:04.160 : en:11. The Passing of the Elves
00:46:44.301 : en:12. Saruman The White
00:51:21.412 : en:13. A Short Cut to Mushrooms
00:55:12.434 : en:14. Bucklebury Ferry
00:57:30.072 : en:15. At the Sign of The Prancing Pony
01:03:31.516 : en:16. The Nazgul
01:07:16.115 : en:17. The Midgewater Marshes
01:08:53.588 : en:18. The Spoiling Of Isengard
01:10:35.940 : en:19. A Knife in the Dark
01:15:15.386 : en:20. The Caverns of Isengard
01:17:46.620 : en:21. Flight to the Ford
01:24:11.546 : en:22. Rivendell
01:26:12.501 : en:23. Many Meetings
01:29:41.585 : en:24. The Fate of the Ring
01:33:14.672 : en:25. The Sword That Was Broken
01:35:54.082 : en:26. The Evenstar
01:37:32.972 : en:27. The Council of Elrond
01:45:45.000 : en:28. Gilraen's Memorial
01:46:59.826 : en:29. Bilbo's Gifts
01:48:43.221 : en:30. The Departure of the Fellowship
01:50:00.631 : en:31. The Ring Goes South
01:53:06.442 : en:32. The Pass of Caradhras
01:57:52.728 : en:33. Moria
02:04:18.113 : en:34. A Journey in the Dark
02:10:48.461 : en:35. Balin's Tomb
02:20:13.192 : en:36. The Bridge of Khazad-Dum
02:29:54.648 : en:37. Lothlorien
02:33:07.299 : en:38. Caras Galadhorn
02:40:24.319 : en:39. The Mirror of Galadriel
02:46:04.325 : en:40. The Fighting Uruk-Hai
02:47:45.676 : en:41. Farewell to Lorien
02:53:08.207 : en:42. The Great River
02:58:00.457 : en:43. Parth Galen
03:04:28.219 : en:44. The Breaking of the Fellowship
03:11:44.155 : en:45. The Departure of Boromir
03:14:26.484 : en:46. The Road Goes Ever On
03:20:44.653 : en:47. Credits
03:28:25.155 : en:48. Official Fan Club Credits
Властелин колец: Две крепости / The Lord of the Rings: The Two Towers
Год выпуска: 2002
Страна: США, Новая Зеландия
Жанр: фэнтези, приключения
Продолжительность: 03:55:31
Перевод: Дубляж + многоголосые вставки на реж. , Оригинал
Субтитры: Русские (Форс, полные), Английские (Полные)

Режиссер: Питер Джексон

rating

В ролях: Элайджа Вуд (Frodo), Шон Эстин (Sam), Орландо Блум (Legolas), Вигго Мортенсен (Aragorn), Иэн МакКеллен (Gandalf), Доминик Монахэн (Merry), Миранда Отто (Eowyn), Джон Рис-Дэвис (Gimli / Voice of Treebeard), Энди Серкис (Gollum), Билли Бойд (Pippin), Кристофер Ли (Saruman), Бернард Хилл (Theoden)

Описание: Братство распалось, но Кольцо Всевластья должно быть уничтожено. Фродо и Сэм вынуждены доверить свои жизни Голлуму, который взялся провести их к вратам Мордора. Громадная Армия Сарумана приближается: члены братства и их союзники готовы принять бой. Битва за Средиземье продолжается.

Качество: BDRip 720p / 60 FPS by Tiberiumsun69
Формат: MKV
Видео кодек: H.265
Аудио кодек: AC3
Видео: HEVC, 1280x534 (2.40:1), 3000 kbps, 60.000 fps, 0.073 bpp
Аудио#1: AC3 / 5.1 / 48 kHz / 448 kbps / 16 bit | Дубляж + MVO Позитив-Мультимедиа на вставки реж.
Аудио#2: AC3 / 5.1 / 48 kHz / 640 kbps / 16 bit | Original
General
Unique ID : 49985000198987386496466299743142124029 (0x259AC2C8123598B986F6A4647ED799FD)
Complete name : D:\Torrents\Властелин колец BDRip-HEVC 720p 60fps (Ext)\02. Две Крепости.mkv
Format : Matroska
Format version : Version 4 / Version 2
File size : 6.75 GiB
Duration : 3 h 55 min
Overall bit rate : 4 100 kb/s
Movie name : Tiberiumsun69
Encoded date : UTC 2018-02-21 04:46:13
Writing application : mkvmerge v20.0.0 ('I Am The Sun') 64-bit
Writing library : libebml v1.3.5 + libmatroska v1.4.8
Cover : Yes
Attachments : Cover.png

Video
ID : 1
Format : HEVC
Format/Info : High Efficiency Video Coding
Format profile : Main@L4@Main
Codec ID : V_MPEGH/ISO/HEVC
Duration : 3 h 55 min
Bit rate : 3 008 kb/s
Width : 1 280 pixels
Height : 536 pixels
Display aspect ratio : 2.40:1
Frame rate mode : Constant
Frame rate : 60.000 FPS
Color space : YUV
Chroma subsampling : 4:2:0
Bit depth : 8 bits
Bits/(Pixel*Frame) : 0.073
Stream size : 4.95 GiB (73%)
Writing library : x265 2.6+37-1949157705ce:[Windows][MSVC 1912][64 bit] 8bit+10bit+12bit
Encoding settings : cpuid=1173503 / frame-threads=3 / numa-pools=8 / wpp / no-pmode / no-pme / psnr / ssim / log-level=2 / input-csp=1 / input-res=1280x536 / interlace=0 / total-frames=847851 / level-idc=40 / high-tier=1 / uhd-bd=0 / ref=3 / no-allow-non-conformance / no-repeat-headers / annexb / no-aud / no-hrd / info / hash=0 / no-temporal-layers / open-gop / min-keyint=25 / keyint=250 / gop-lookahead=0 / bframes=4 / b-adapt=2 / b-pyramid / bframe-bias=0 / rc-lookahead=20 / lookahead-slices=0 / scenecut=40 / radl=0 / no-intra-refresh / ctu=64 / min-cu-size=8 / no-rect / no-amp / max-tu-size=32 / tu-inter-depth=1 / tu-intra-depth=1 / limit-tu=0 / rdoq-level=0 / dynamic-rd=0.00 / no-ssim-rd / signhide / no-tskip / nr-intra=0 / nr-inter=0 / no-constrained-intra / strong-intra-smoothing / max-merge=2 / limit-refs=3 / no-limit-modes / me=1 / subme=2 / merange=57 / temporal-mvp / weightp / no-weightb / no-analyze-src-pics / deblock=0:0 / sao / no-sao-non-deblock / rd=3 / no-early-skip / rskip / no-fast-intra / no-tskip-fast / no-cu-lossless / no-b-intra / no-splitrd-skip / rdpenalty=0 / psy-rd=2.00 / psy-rdoq=0.00 / no-rd-refine / no-lossless / cbqpoffs=0 / crqpoffs=0 / rc=abr / bitrate=3000 / qcomp=0.60 / qpstep=4 / stats-write=0 / stats-read=0 / ipratio=1.40 / pbratio=1.30 / aq-mode=1 / aq-strength=1.00 / cutree / zone-count=0 / no-strict-cbr / qg-size=32 / no-rc-grain / qpmax=69 / qpmin=0 / no-const-vbv / sar=1 / overscan=0 / videoformat=5 / range=0 / colorprim=2 / transfer=2 / colormatrix=2 / chromaloc=0 / display-window=0 / max-cll=0,0 / min-luma=0 / max-luma=255 / log2-max-poc-lsb=8 / vui-timing-info / vui-hrd-info / slices=1 / no-opt-qp-pps / no-opt-ref-list-length-pps / no-multi-pass-opt-rps / scenecut-bias=0.05 / no-opt-cu-delta-qp / no-aq-motion / no-hdr / no-hdr-opt / no-dhdr10-opt / analysis-reuse-level=5 / scale-factor=0 / refine-intra=0 / refine-inter=0 / refine-mv=0 / no-limit-sao / ctu-info=0 / no-lowpass-dct / refine-mv-type=0 / copy-pic=1
Default : Yes
Forced : No

Audio #1
ID : 2
Format : AC-3
Format/Info : Audio Coding 3
Codec ID : A_AC3
Duration : 3 h 55 min
Bit rate mode : Constant
Bit rate : 448 kb/s
Channel(s) : 6 channels
Channel positions : Front: L C R, Side: L R, LFE
Sampling rate : 48.0 kHz
Frame rate : 31.250 FPS (1536 SPF)
Bit depth : 16 bits
Compression mode : Lossy
Stream size : 755 MiB (11%)
Title : Dub + MVO Позитив MM на реж. вставки
Language : Russian
Service kind : Complete Main
Default : Yes
Forced : No

Audio #2
ID : 3
Format : AC-3
Format/Info : Audio Coding 3
Codec ID : A_AC3
Duration : 3 h 55 min
Bit rate mode : Constant
Bit rate : 640 kb/s
Channel(s) : 6 channels
Channel positions : Front: L C R, Side: L R, LFE
Sampling rate : 48.0 kHz
Frame rate : 31.250 FPS (1536 SPF)
Bit depth : 16 bits
Compression mode : Lossy
Stream size : 1.05 GiB (16%)
Title : Оригинал
Language : English
Service kind : Complete Main
Default : No
Forced : No

Text #1
ID : 4
Format : ASS
Codec ID : S_TEXT/ASS
Codec ID/Info : Advanced Sub Station Alpha
Duration : 2 h 23 min
Bit rate : 4 b/s
Count of elements : 61
Compression mode : Lossless
Stream size : 4.31 KiB (0%)
Title : Форсированные
Language : Russian
Default : Yes
Forced : No

Text #2
ID : 5
Format : UTF-8
Codec ID : S_TEXT/UTF8
Codec ID/Info : UTF-8 Plain Text
Duration : 3 h 33 min
Bit rate : 60 b/s
Count of elements : 2059
Stream size : 95.4 KiB (0%)
Title : Полные
Language : Russian
Default : No
Forced : No

Text #3
ID : 6
Format : ASS
Codec ID : S_TEXT/ASS
Codec ID/Info : Advanced Sub Station Alpha
Duration : 3 h 33 min
Bit rate : 76 b/s
Count of elements : 2035
Compression mode : Lossless
Stream size : 120 KiB (0%)
Title : Полные
Language : English
Default : No
Forced : No

Menu
00:00:00.000 : en: 1. The Foundations of Stone
00:04:08.748 : en: 2. Elven Rope
00:06:10.829 : en: 3. The Taming of Smeagol
00:14:44.967 : en: 4. The Uruk-hai
00:17:06.609 : en: 5. The Three Hunters
00:19:17.948 : en: 6. The Burning of the Westfold
00:23:07.094 : en: 7. Massacre at the Fords of Isen
00:23:58.312 : en: 8. The Banishment of omer
00:27:09.044 : en: 9. On the Trail of the Uruk-hai
00:28:03.181 : en:10. Night Camp at Fangorn
00:31:38.230 : en:11. The Riders of Rohan
00:35:45.518 : en:12. The Fate of Merry and Pippin
00:38:17.879 : en:13. Treebeard
00:41:47.797 : en:14. The Passage of the Marshes
00:50:49.755 : en:15. The White Rider
00:58:19.413 : en:16. The Song of the Entwives
01:00:40.178 : en:17. The Heir of Numenor
01:02:48.306 : en:18. The Black Gate is Closed
01:08:05.999 : en:19. Ent Draft
01:12:41.732 : en:20. The King of the Golden Hall
01:24:17.344 : en:21. The Funeral of Theodred
01:25:41.636 : en:22. Simbelmyne on the Burial Mounds
01:27:34.332 : en:23. The King's Decision
01:30:45.523 : en:24. Brego
01:32:30.587 : en:25. The Ring of Barahir
01:34:31.040 : en:26. A Daughter of Kings
01:35:57.043 : en:27. Exodus from Edoras
01:37:02.316 : en:28. The Forests of Ithilien
01:38:43.960 : en:29. Gollum and Smeagol
01:41:14.819 : en:30. Of Herbs and Stewed Rabbit
01:46:40.000 : en:31. Dwarf Women
01:47:22.793 : en:32. One of the Dunedain
01:49:52.651 : en:33. The Evenstar
01:54:59.207 : en:34. The Wolves of Isengard
02:01:37.396 : en:35. Helm's Deep
02:04:17.515 : en:36. Isengard Unleashed
02:06:53.963 : en:37. The Grace of the Valar
02:08:31.519 : en:38. Arwen's Fate
02:12:14.283 : en:39. The Story Foreseen from Lorien
02:14:40.262 : en:40. The Window on the West
02:18:29.866 : en:41. Sons of the Steward
02:23:09.437 : en:42. The Forbidden Pool
02:30:31.128 : en:43. Aragorn's Return
02:36:04.378 : en:44. Entmoot
02:37:24.250 : en:45. The Glittering Caves
02:40:32.521 : en:46. "Where Is the Horse and the Rider?"
02:42:17.251 : en:47. "Don't Be Hasty, Master Meriadoc!"
02:43:07.926 : en:48. The Host of the Eldar
02:46:42.015 : en:49. The Batter of the Hornburg
02:53:04.397 : en:50. Old Entish
02:54:41.452 : en:51. The Breach of the Deeping Wall
02:58:06.574 : en:52. The Entmoot Decides
02:59:51.721 : en:53. The Retreat to the Hornburg
03:05:54.208 : en:54. Master Peregrin's Plan
03:07:19.293 : en:55. Osgiliath
03:07:54.036 : en:56. The Last March of the Ents
03:10:23.560 : en:57. The Nazgul Attack
03:12:55.545 : en:58. Forth Eorlingas
03:17:34.032 : en:59. The Flooding of Isengard
03:20:00.386 : en:60. The Tales That Really Mattered...
03:24:45.671 : en:61. Fangorn Comes to Helm's Deep
03:25:37.224 : en:62. The Final Tally
03:26:18.764 : en:63. Flotsam and Jetsam
03:28:22.555 : en:64. Farewell to Faramir
03:30:52.413 : en:65. "The Battle for Middle-Earth is About to Begin"
03:32:32.096 : en:66. Gollum's Plan
03:34:56.240 : en:67. End Credits
03:43:52.525 : en:68. Fan Club Credits
Властелин колец: Возвращение Короля / The Lord of the Rings: The Return of the King
Год выпуска: 2003
Страна: США, Новая Зеландия
Жанр: фэнтези, приключения
Продолжительность: 04:23:16
Перевод: Дубляж + многоголосые вставки на реж., Оригинал
Субтитры: Русские (Форс, полные), Английские (Полные)

Режиссер: Питер Джексон

rating

В ролях: Элайджа Вуд (Frodo), Вигго Мортенсен (Aragorn), Шон Эстин (Sam), Иэн МакКеллен (Gandalf), Орландо Блум (Legolas), Доминик Монахэн (Merry), Билли Бойд (Pippin), Энди Серкис (Gollum / Smeagol), Миранда Отто (Eowyn), Бернард Хилл (Theoden), Карл Урбан (Eomer), Дэвид Уэнэм (Faramir)

Описание: Последняя часть трилогии о Кольце Всевластия и о героях, взявших на себя бремя спасения Средиземья. Повелитель сил Тьмы Саурон направляет свои бесчисленные рати под стены Минас-Тирита, крепости Последней Надежды. Он предвкушает близкую победу, но именно это и мешает ему заметить две крохотные фигурки - хоббитов, приближающихся к Роковой Горе, где им предстоит уничтожить Кольцо Всевластия. Улыбнется ли им счастье?

Качество: BDRip 720p / 60 FPS by Tiberiumsun69
Формат: MKV
Видео кодек: H.265
Аудио кодек: AC3
Видео: HEVC, 1280x534 (2.40:1), 3000 kbps, 60.000 fps, 0.075 bpp
Аудио#1: AC3 / 5.1 / 48 kHz / 448 kbps / 16 bit | Дубляж + MVO Позитив-Мультимедиа на вставки реж.
Аудио#2: AC3 / 5.1 / 48 kHz / 640 kbps / 16 bit | Original
General
Unique ID : 105610925686865724722011490235309472556 (0x4F73ECA70461E00DD40471868789BB2C)
Complete name : D:\Torrents\Властелин колец BDRip-HEVC 720p 60fps (Ext)\03. Возвращение короля.mkv
Format : Matroska
Format version : Version 4 / Version 2
File size : 7.59 GiB
Duration : 4 h 23 min
Overall bit rate : 4 125 kb/s
Movie name : Tiberiumsun69
Encoded date : UTC 2018-02-21 04:49:20
Writing application : mkvmerge v20.0.0 ('I Am The Sun') 64-bit
Writing library : libebml v1.3.5 + libmatroska v1.4.8
Cover : Yes
Attachments : Cover.png

Video
ID : 1
Format : HEVC
Format/Info : High Efficiency Video Coding
Format profile : Main@L4@Main
Codec ID : V_MPEGH/ISO/HEVC
Duration : 4 h 23 min
Bit rate : 3 033 kb/s
Width : 1 280 pixels
Height : 528 pixels
Display aspect ratio : 2.40:1
Frame rate mode : Constant
Frame rate : 60.000 FPS
Color space : YUV
Chroma subsampling : 4:2:0
Bit depth : 8 bits
Bits/(Pixel*Frame) : 0.075
Stream size : 5.58 GiB (74%)
Writing library : x265 2.6+37-1949157705ce:[Windows][MSVC 1912][64 bit] 8bit+10bit+12bit
Encoding settings : cpuid=1173503 / frame-threads=3 / numa-pools=8 / wpp / no-pmode / no-pme / psnr / ssim / log-level=2 / input-csp=1 / input-res=1280x528 / interlace=0 / total-frames=947761 / level-idc=40 / high-tier=1 / uhd-bd=0 / ref=3 / no-allow-non-conformance / no-repeat-headers / annexb / no-aud / no-hrd / info / hash=0 / no-temporal-layers / open-gop / min-keyint=25 / keyint=250 / gop-lookahead=0 / bframes=4 / b-adapt=2 / b-pyramid / bframe-bias=0 / rc-lookahead=20 / lookahead-slices=0 / scenecut=40 / radl=0 / no-intra-refresh / ctu=64 / min-cu-size=8 / no-rect / no-amp / max-tu-size=32 / tu-inter-depth=1 / tu-intra-depth=1 / limit-tu=0 / rdoq-level=0 / dynamic-rd=0.00 / no-ssim-rd / signhide / no-tskip / nr-intra=0 / nr-inter=0 / no-constrained-intra / strong-intra-smoothing / max-merge=2 / limit-refs=3 / no-limit-modes / me=1 / subme=2 / merange=57 / temporal-mvp / weightp / no-weightb / no-analyze-src-pics / deblock=0:0 / sao / no-sao-non-deblock / rd=3 / no-early-skip / rskip / no-fast-intra / no-tskip-fast / no-cu-lossless / no-b-intra / no-splitrd-skip / rdpenalty=0 / psy-rd=2.00 / psy-rdoq=0.00 / no-rd-refine / no-lossless / cbqpoffs=0 / crqpoffs=0 / rc=abr / bitrate=3000 / qcomp=0.60 / qpstep=4 / stats-write=0 / stats-read=0 / ipratio=1.40 / pbratio=1.30 / aq-mode=1 / aq-strength=1.00 / cutree / zone-count=0 / no-strict-cbr / qg-size=32 / no-rc-grain / qpmax=69 / qpmin=0 / no-const-vbv / sar=1 / overscan=0 / videoformat=5 / range=0 / colorprim=2 / transfer=2 / colormatrix=2 / chromaloc=0 / display-window=0 / max-cll=0,0 / min-luma=0 / max-luma=255 / log2-max-poc-lsb=8 / vui-timing-info / vui-hrd-info / slices=1 / no-opt-qp-pps / no-opt-ref-list-length-pps / no-multi-pass-opt-rps / scenecut-bias=0.05 / no-opt-cu-delta-qp / no-aq-motion / no-hdr / no-hdr-opt / no-dhdr10-opt / analysis-reuse-level=5 / scale-factor=0 / refine-intra=0 / refine-inter=0 / refine-mv=0 / no-limit-sao / ctu-info=0 / no-lowpass-dct / refine-mv-type=0 / copy-pic=1
Default : Yes
Forced : No

Audio #1
ID : 2
Format : AC-3
Format/Info : Audio Coding 3
Codec ID : A_AC3
Duration : 4 h 23 min
Bit rate mode : Constant
Bit rate : 448 kb/s
Channel(s) : 6 channels
Channel positions : Front: L C R, Side: L R, LFE
Sampling rate : 48.0 kHz
Frame rate : 31.250 FPS (1536 SPF)
Bit depth : 16 bits
Compression mode : Lossy
Stream size : 844 MiB (11%)
Title : Dub + MVO Позитив а реж. места
Language : Russian
Service kind : Complete Main
Default : Yes
Forced : No

Audio #2
ID : 3
Format : AC-3
Format/Info : Audio Coding 3
Codec ID : A_AC3
Duration : 4 h 23 min
Bit rate mode : Constant
Bit rate : 640 kb/s
Channel(s) : 6 channels
Channel positions : Front: L C R, Side: L R, LFE
Sampling rate : 48.0 kHz
Frame rate : 31.250 FPS (1536 SPF)
Bit depth : 16 bits
Compression mode : Lossy
Stream size : 1.18 GiB (16%)
Title : Оригинал
Language : English
Service kind : Complete Main
Default : No
Forced : No

Text #1
ID : 4
Format : UTF-8
Codec ID : S_TEXT/UTF8
Codec ID/Info : UTF-8 Plain Text
Duration : 3 h 53 min
Bit rate : 0 b/s
Count of elements : 8
Stream size : 391 Bytes (0%)
Title : Форсированные
Language : Russian
Default : Yes
Forced : No

Text #2
ID : 5
Format : UTF-8
Codec ID : S_TEXT/UTF8
Codec ID/Info : UTF-8 Plain Text
Duration : 4 h 0 min
Bit rate : 44 b/s
Count of elements : 1778
Stream size : 78.6 KiB (0%)
Title : Полные
Language : Russian
Default : No
Forced : No

Text #3
ID : 6
Format : UTF-8
Codec ID : S_TEXT/UTF8
Codec ID/Info : UTF-8 Plain Text
Duration : 4 h 5 min
Bit rate : 30 b/s
Count of elements : 2141
Stream size : 55.3 KiB (0%)
Title : Полные
Language : English
Default : No
Forced : No

Menu
00:00:00.000 : en: 1. The Finding of the Ring
00:06:24.342 : en: 2. Journey to the Cross-Roads
00:09:21.394 : en: 3. The Road to Isengard
00:11:21.848 : en: 4. The Voice of Saruman
00:18:23.311 : en: 5. Return to Edoras
00:23:05.009 : en: 6. Gollum's Villany
00:27:03.330 : en: 7. Eowyn's Dream
00:29:00.697 : en: 8. The Palantir
00:37:06.433 : en: 9. Arwen's Vision
00:40:02.567 : en:10. The Reforging of Narsil
00:42:03.229 : en:11. Minas Tirith
00:47:52.203 : en:12. The Decline of Gondor
00:50:18.641 : en:13. Cross-Roads of the Fallen King
00:52:18.761 : en:14. "The Deep Breath Before the Plunge"
00:55:35.332 : en:15. Minas Morgul
00:59:36.406 : en:16. Sam's Warning
01:00:23.703 : en:17. Pippin's Task
01:00:50.605 : en:18. Osgiliath Invaded
01:04:30.075 : en:19. The Lighting of the Beacons
01:07:16.032 : en:20. Theoden's Decision
01:10:35.314 : en:21. The Fall of Osgiliath
01:14:54.824 : en:22. The Wizard's Pupil
01:17:21.971 : en:23. The Stairs of Cirith Ungol
01:19:21.799 : en:24. "Courage Is the Best Defense"
01:20:01.088 : en:25. Peregrin of the Tower Guard
01:21:26.799 : en:26. Allegiance to Denethor
01:23:48.941 : en:27. The Parting of Sam and Frodo
01:29:08.593 : en:28. The Sacrifice of Faramir
01:33:57.590 : en:29. Marshalling at Dunharrow
01:38:08.049 : en:30. Anduril - Flame of the West
01:42:49.705 : en:31. Aragorn Takes the Paths of the Dead
01:45:34.245 : en:32. "No More Despair"
01:46:57.453 : en:33. Dwimorberg - the Haunted Mountain
01:49:24.433 : en:34. The Muster of Rohan
01:51:09.997 : en:35. The Paths of the Dead
01:58:39.696 : en:36. The Siege of Gondor
02:07:41.500 : en:37. The Corsairs of Umbar
02:08:42.779 : en:38. Shelob's Lair
02:17:50.451 : en:39. Merry's Simple Courage
02:19:40.770 : en:40. Grond - The Hammer of the Underworld
02:20:17.139 : en:41. The Tomb of the Stewards
02:21:50.775 : en:42. Breaking the Gate of Gondor
02:22:57.591 : en:43. The Choices of Master Samwise
02:28:59.328 : en:44. Denethor's Madness
02:30:04.643 : en:45. The Witch King's Hour
02:32:29.663 : en:46. The Ride of the Rohirrim
02:36:44.084 : en:47. The Pyre of Denethor
02:38:51.169 : en:48. The Battle of Pelennor Fields
02:43:46.714 : en:49. "A Far Green Country"
02:45:17.138 : en:50. The Nazugl and His Prey
02:47:03.077 : en:51. The Black Ships
02:47:55.504 : en:52. Shieldmaiden of Rohan
02:48:39.757 : en:53. Victory at Minas Tirith
02:51:15.454 : en:54. The Passing of Theoden
02:53:18.160 : en:55. Oaths Fulfilled
02:54:25.102 : en:56. The Houses of Healing
02:56:41.113 : en:57. Pippin Looks After Merry
02:57:33.165 : en:58. The Tower of Cirith Ungol
03:04:29.080 : en:59. The Last Debate
03:06:11.433 : en:60. Aragorn Masters the Palantir
03:07:40.522 : en:61. The Captain and the White Lady
03:08:30.655 : en:62. In the Company of Orcs
03:12:12.043 : en:63. The Land of Shadow
03:16:23.753 : en:64. The Mouth of Sauron
03:19:39.657 : en:65. The Black Gate Opens
03:23:13.454 : en:66. "I Can't Carry It for You... But I Can Carry You"
03:25:26.253 : en:67. The Last Move
03:26:29.358 : en:68. Mount Doom
03:28:25.432 : en:69. "The Eagles Are Coming!"
03:28:59.758 : en:70. The Crack of Doom
03:34:38.012 : en:71. Sauron Defeated
03:36:51.396 : en:72. The End of All Things
03:40:20.396 : en:73. The Fellowship Reunited
03:42:43.497 : en:74. The Return of the King
03:47:36.540 : en:75. Homeward Bound
03:52:18.447 : en:76. The Grey Havens
04:01:37.047 : en:77. End Credits
04:12:44.463 : en:78. Fan Club Credits
Просьба к переливающим на другие сайты, в оформлении указывайте пожалуйста авторство группы Ссылка на биткоин кошелек - 1DWGvzWwL9gYLWXkozc7RAoU6KmFnCsWsi Авторская группа в ВК
pb.wtf



Скачать Властелин колец: Трилогия через торрент http://i74.fastpic.ru/big/2016/0221/73/78c9b6653e2a0e4ed537ca0490afdd73.png Скачать, смотреть онлайн Властелин колец: Трилогия бесплантно в хорошем качестве Описание: Сказания о Средиземье - это хроника Великой войны за Кольцо, войны, длившейся не одну тысячу лет. Тот, кто владел Кольцом, ... 9.7 10 30
Info! Золотая раздача, скачанное не засчитывается.
Торрент: Зарегистрирован [2018-02-21 10:32] · скачан: 968 раз
Статус: √ проверено
Размер: 20.85 GB
Как cкачать? Как скачать Властелин колец: Трилогия через торрент | UTorrent

% Раздел Тема Автор DL S | L
Сборники и Сиквелы (48-60 fps) [ 32.78 GB ] Властелин колец: Трилогия / The Lord of the Rings: Trilogy [2001-2003 BDRip-AVC 60fps Extended Edition Dub + MVO MVO AVO Original] от R.G. HD-Films Tiberiumsun69 Скачать
22 | 2


Последний раз редактировалось: Tiberiumsun69 (2018-02-21 10:41), всего редактировалось 1 раз

28-11-2019 20:33  

Отключить всю рекламу на сайте

21-02-2018 10:39 Властелин колец: Трилогия Скачать торрент  

Всем приятного просмотра.Настройки медиаинфо теперь отображаются корректно.Если у вас есть советы по параметрам сжатия HEVC то пожалуйста оставляйте их в нашей авторской группе в ВК или в В разделе с инструкцией.

Спасибо за внимание.pb.wtf



21-02-2018 12:17 Властелин колец: Трилогия Скачать торрент  

Оооо! Очень большое спасибо.pb.wtf



05-10-2018 17:01 Властелин колец: Трилогия Скачать торрент  

если тут дубляж тот же что по телеку крутят,то это самый плохой перевод,не понимаю зачем его везде берут за основу?лучший перевод трилогии это Позитив-Мультимедиаpb.wtf



    Дорогой пользователь! Огромная просьба, поблагодарите релизера, оцените раздачу и оставьте свои комментарий, если Вы скачали Властелин колец: Трилогия через торрент бесплатно!
    Комментировать посты могут только пользователи прошедшие не сложную регистрацию
    Показать сообщения:    

    Властелин колец: Трилогия через торрент
    Скачать бесплатно Властелин колец: Трилогия
    Властелин колец: Трилогия скачать торрент
    Властелин колец: Трилогия смотреть онлайн
    Cкачать фильм Властелин колец: Трилогия бесплатно
    Властелин колец: Трилогия скачать торрент в хорошем качестве
    Властелин колец: Трилогия смотреть онлайн бесплатно в хорошем качестве


    Вы не можете начинать темы
    Вы не можете отвечать на сообщения
    Вы не можете редактировать свои сообщения
    Вы не можете удалять свои сообщения
    Вы не можете голосовать в опросах
    Вы не можете прикреплять файлы к сообщениям
    Вы можете скачивать файлы