Ссылка на приватное зеркало нашего сайта всего за 1$. Внимание количество ограничено!!!

2 сезон

iTunes

1 сезон

1

2 сезон

2 сезон

iTunes

1 сезон

RePack

30

Ultimate

ВАЖНО

ИГРА 18+

pack

RePack

MK11
pack

Забери бонус

RePack

jed

!!Акция!!

Alien_Rage

RePack

fifa19

RePack

Assassins Creed: Odyssey

RePack

NEED FOR SPEED™ PAYBACK

4 сезон

9 сезон

Бесстыжие 9 сезон

Все сериалы

все сериалы на PB.wtf

RePack

FAR CRY 5
  

Сын / The Son / Сезон: 1 / Серии: 1-10 из 10 (Кевин Даулинг, Джереми Уэбб, Джон Дэвид Коулз) [2017, драма, вестерн, экранизация, WEB-DL 1080p] MVO [LostFilm] pb.wtf

Сын через торрент pb.wtf

Размер: 18.05 GB | Добавлен: 2 года 9 мес. назад | Торрент скачан:69 раз
Скачать  

21-02-2018 14:44 Сын Скачать торрент  

Сын / The SonИнформация о фильме:

Название: Сын
Оригинальное название: The Son
Год выпуска: 2017 (1 сезон)
Страна: США / American Movie Classics (AMC), Mad Hatter Entertainment
Жанр: драма, вестерн, экранизация
Продолжительность: ~ 00:43:00 серия
Перевод: Профессиональный многоголосый - LostFilm
Субтитры: английские
✦ Примечание: Без заставки и логотипа LostFilm!

Режиссер: Кевин Даулинг, Джереми Уэбб, Джон Дэвид Коулз

rating

В ролях:

Пирс Броснан, Генри Гаррет, Занн МаКларнон, Татанка Минс, Паола Нуньес, Элизабет Фрэнсис, Натан Крус, Шэйн Грэхэм, Джесс Вейкслер, Электра Авеллан, Калеб Бёрджесс, Сидни Лукас, Шериф Хачис, Бретт Брэдфорд, Луис Джон Сория, Шон Стоун, Мануэль Уриса и др.

Описание:

Историческая сага о семействе МакКалов, которые стояли у истоков нефтеносной добычи ни юге Техаса. Глава семьи вместе с сыном Питером управляют большим ранчо и намереваются привлечь инвестиции банкиров для добычи нефти. Он один из тех людей, которые пойдут на все ради достижения своей цели. Однако за нефтяные участки начинает настоящая борьба и МакКалы не остановятся ни перед чем, чтобы построить свою империю. Экранизация произведения Филиппа Мейера о становлении Америки.

Информация о файле:

Качество: WEB-DL 1080p
Формат: MKV
Видео кодек: H.264
Аудио кодек: AC3

Видео: ~ 5000 kbps, 1916x1076 (16:9), 23.976 fps
Аудио#1 RUS: AC3, 48 KHz, 6 ch, 384 kbps
Аудио#2 ENG: AC3, 48 KHz, 6 ch, 384 kbps


скриншот   скриншот   скриншот   скриншот   скриншот  

Общее
Уникальный идентификатор : 231306602749569911892945312901436365837 (0xAE040800753D133D83CBEACDE8855C0D)
Полное имя : D:\The.Son.S01.1080p.WEB-DL.Rus.Eng.HDCLUB\The.Son.S01E01.1080p.WEB-DL.Rus.Eng.HDCLUB.mkv
Формат : Matroska
Версия формата : Version 4 / Version 2
Размер файла : 2,04 Гбайт
Продолжительность : 49 м. 25 с.
Общий поток : 5897 Кбит/сек
Название фильма : The Son - Season 1, Episode 1: First Son of Texas (2017) - Release for HDCLUB
Дата кодирования : UTC 2017-07-08 08:33:35
Программа кодирования : mkvmerge v13.0.0 ('The Juggler') 64bit
Библиотека кодирования : libebml v1.3.4 + libmatroska v1.4.5

Видео
Идентификатор : 1
Формат : AVC
Формат/Информация : Advanced Video Codec
Профиль формата : High@L4
Параметр CABAC формата : Да
Параметр ReFrames формата : 4 кадра
Идентификатор кодека : V_MPEG4/ISO/AVC
Продолжительность : 49 м. 25 с.
Битрейт : 5012 Кбит/сек
Ширина : 1916 пикселей
Высота : 1076 пикселей
Соотношение сторон : 16:9
Режим частоты кадров : Постоянный
Частота кадров : 23,976 (24000/1001) кадра/сек
Цветовое пространство : YUV
Субдискретизация насыщенности : 4:2:0
Битовая глубина : 8 бит
Тип развёртки : Прогрессивная
Бит/(Пиксели*Кадры) : 0.101
Размер потока : 1,73 Гбайт (85%)
Заголовок : The Son - Season 1, Episode 1: First Son of Texas (2017) - Release for HDCLUB
Язык : English
Default : Да
Forced : Нет
Цветовой диапазон : Limited
Основные цвета : BT.709
Характеристики трансфера : BT.709
Коэффициенты матрицы : BT.709

Аудио #1
Идентификатор : 2
Формат : AC-3
Формат/Информация : Audio Coding 3
Расширение режима : CM (complete main)
Параметр Endianness формата : Big
Идентификатор кодека : A_AC3
Продолжительность : 49 м. 25 с.
Вид битрейта : Постоянный
Битрейт : 384 Кбит/сек
Каналы : 6 каналов
Расположение каналов : Front: L C R, Side: L R, LFE
Частота : 48,0 КГц
Частота кадров : 31,250 кадров/сек (1536 spf)
Метод сжатия : С потерями
Размер потока : 136 Мбайт (7%)
Заголовок : AC3 5.1 @ 384 kbps - MVO, LostFilm
Язык : Russian
Default : Да
Forced : Нет

Аудио #2
Идентификатор : 3
Формат : AC-3
Формат/Информация : Audio Coding 3
Расширение режима : CM (complete main)
Параметр Endianness формата : Big
Идентификатор кодека : A_AC3
Продолжительность : 49 м. 25 с.
Вид битрейта : Постоянный
Битрейт : 384 Кбит/сек
Каналы : 6 каналов
Расположение каналов : Front: L C R, Side: L R, LFE
Частота : 48,0 КГц
Частота кадров : 31,250 кадров/сек (1536 spf)
Метод сжатия : С потерями
Размер потока : 136 Мбайт (7%)
Заголовок : AC3 5.1 @ 384 kbps
Язык : English
Default : Нет
Forced : Нет

Текст #1
Идентификатор : 4
Формат : UTF-8
Идентификатор кодека : S_TEXT/UTF8
Идентификатор кодека/Информация : UTF-8 Plain Text
Язык : English
Default : Нет
Forced : Нет

Текст #2
Идентификатор : 5
Формат : UTF-8
Идентификатор кодека : S_TEXT/UTF8
Идентификатор кодека/Информация : UTF-8 Plain Text
Заголовок : SDH
Язык : English
Default : Нет
Forced : Нет

pb.wtf



Скачать Сын через торрент http://i91.fastpic.ru/big/2017/0411/29/9523b286080835f547252aaa7a397029.png Скачать фильм Сын через торрент бесплантно в хорошем качестве Описание: Историческая сага о семействе МакКалов, которые стояли у истоков нефтеносной добычи ни юге Техаса. Глава семьи вместе с сыном ... 9.3 10 3
Торрент: Зарегистрирован [2018-02-21 14:44] · скачан: 69 раз
Статус: √ проверено
Размер: 18.05 GB
Как cкачать? Как скачать Сын через торрент | qTorrent

% Раздел Тема Автор DL S | L
Зарубежные сериалы [ 28.14 GB ] Сын / The Son / Сезон: 2 / Серии: 1-10 из 10 [2019 WEB-DL 1080p] MVO [TVShows] bober100 Скачать
1 | 0
Зарубежные сериалы [ 28.93 GB ] Сын / The Son / Сезон: 2 / Серии: 1-10 из 10 [2019 WEB-DL 1080p] MVO [LostFilm] bober100 Скачать
1 | 0
Зарубежные сериалы [ 13.65 GB ] МатьОтецСын / MotherFatherSon / Сезон: 1 / Серии: 1-8 из 8 [2019 HDTV 1080p] [MVO] killermax2013 Скачать
1 | 0
Зарубежные сериалы [ 4.99 GB ] Сын / The Son / 1 сезон / 1-10 серии из 10 [2017 исторический WEB-DLRip] MVO [LostFilm] bober100 Скачать
1 | 0
Фильмы с украинским озвучиванием [ 5.42 GB ] Сын / The Son / 1 сезон / 1-10 серии из 10 [2017 WEB-DLRip] [Ukr MVO] killermax2013 Скачать
1 | 0

28-11-2019 20:33  

Отключить всю рекламу на сайте

    Дорогой пользователь! Огромная просьба, поблагодарите релизера, оцените раздачу и оставьте свои комментарий, если Вы скачали Сын через торрент бесплатно! Внесите свою лепту в развитие PiratBit!
    Комментировать посты могут только пользователи прошедшие не сложную регистрацию
    Показать сообщения:    

    Сын через торрент
    Скачать бесплатно Сын
    Сын скачать торрент
    Сын смотреть онлайн
    Cкачать фильм Сын бесплатно
    Сын скачать торрент в хорошем качестве
    Сын смотреть онлайн бесплатно в хорошем качестве


    Вы не можете начинать темы
    Вы не можете отвечать на сообщения
    Вы не можете редактировать свои сообщения
    Вы не можете удалять свои сообщения
    Вы не можете голосовать в опросах
    Вы не можете прикреплять файлы к сообщениям
    Вы можете скачивать файлы