Ссылка на приватное зеркало нашего сайта всего за 1$. Внимание количество ограничено!!!

2 сезон

iTunes

1 сезон

1

2 сезон

2 сезон

iTunes

1 сезон

RePack

30

Ultimate

ВАЖНО

ИГРА 18+

pack

RePack

MK11
pack

Забери бонус

RePack

jed

!!Акция!!

Alien_Rage

RePack

fifa19

RePack

Assassins Creed: Odyssey

RePack

NEED FOR SPEED™ PAYBACK

4 сезон

9 сезон

Бесстыжие 9 сезон

Все сериалы

все сериалы на PB.wtf

RePack

FAR CRY 5
  

Британия / Britannia / Сезон: 1 / Серии: 1-9 из 9 (Шери Фоксон, Кристоф Шреве, Люк Уотсон) [2017, фэнтези, драма, WEB-DLRip] MVO [Jaskier] pb.wtf

Британия через торрент pb.wtf

Размер: 4.91 GB | Добавлен: 2 года 9 мес. назад | Торрент скачан:223 раза
Скачать  

21-02-2018 15:13 Британия Скачать торрент  

Британия / BritanniaГод выпуска: 2017
Страна: США, Великобритания
Жанр: фэнтези, драма
Продолжительность: 00:01:00
Перевод: Профессиональный (многоголосый) | Jaskier
Субтитры: отсутствуют

Режиссер: Шери Фоксон, Кристоф Шреве, Люк Уотсон

rating

В ролях:

Дэвид Моррисси, Келли Райлли, Николай Ли Каас, Лиана Корнелл, Гершвин Эсташ мл., Макензи Крук, Бэрри Уорд, Стэнли Вебер, Джо Армстронг, Фортунато Серлино

Описание:

События сериала происходят в начале новой эры, когда Британия была населена очень воинственными кельтскими племенами, которые были не готовы перейти под управление иноземцев, пришедших с далекого юга. Во время римского завоевания Британии две враждующие кельтские воительницы - Керра и Антедия - вынуждены объединить силы, чтобы дать отпор римским легионам под предводительством Авла Плавтия.

Качество: WEB-DLRip
Формат: AVI

Видео: XviD, ~ 1400 kbps, 720x400, 25 fps
Аудио#1: MP3, 48,0 КГц, 2 ch, 128 kbps - RUS
Аудио#2: MP3, 48,0 КГц, 2 ch, 128 kbps - ENG


скриншот   скриншот   скриншот  

Общее
Полное имя : D:\Britannia. Season 1 (WEB-DL l 400p l JASKiER)\Britannia.S01E01.400p.JASKiER.avi
Формат : AVI
Формат/Информация : Audio Video Interleave
Размер файла : 832 Мбайт
Продолжительность : 1 ч. 9 м.
Общий поток : 1670 Кбит/сек
Программа кодирования : VirtualDubMod 1.5.10.3 | www.virtualdub-fr.org || (build 2550/release)
Библиотека кодирования : VirtualDubMod build 2550/release

Видео
Идентификатор : 0
Формат : MPEG-4 Visual
Профиль формата : Advanced Simple@L5
Параметр BVOP формата : 2
Параметр QPel формата : Нет
Параметр GMC формата : Без точки перехода
Параметр матрицы формата : Выборочная
Идентификатор кодека : XVID
Идентификатор кодека/Подсказка : XviD
Продолжительность : 1 ч. 9 м.
Битрейт : 1337 Кбит/сек
Ширина : 720 пикселей
Высота : 400 пикселей
Соотношение сторон : 16:9
Частота кадров : 25,000 кадров/сек
Цветовое пространство : YUV
Субдискретизация насыщенности : 4:2:0
Битовая глубина : 8 бит
Тип развёртки : Прогрессивная
Метод сжатия : С потерями
Бит/(Пиксели*Кадры) : 0.186
Размер потока : 666 Мбайт (80%)
Библиотека кодирования : XviD 73

Аудио #1
Идентификатор : 1
Формат : MPEG Audio
Версия формата : Version 1
Профиль формата : Layer 3
Режим : Joint stereo
Расширение режима : MS Stereo
Идентификатор кодека : 55
Идентификатор кодека/Подсказка : MP3
Продолжительность : 1 ч. 9 м.
Вид битрейта : Постоянный
Битрейт : 128 Кбит/сек
Каналы : 2 канала
Частота : 48,0 КГц
Метод сжатия : С потерями
Размер потока : 63,8 Мбайт (8%)
Выравнивание : Соединение по промежуткам

Аудио #2
Идентификатор : 2
Формат : MPEG Audio
Версия формата : Version 1
Профиль формата : Layer 3
Режим : Joint stereo
Расширение режима : MS Stereo
Идентификатор кодека : 55
Идентификатор кодека/Подсказка : MP3
Продолжительность : 1 ч. 9 м.
Вид битрейта : Постоянный
Битрейт : 128 Кбит/сек
Каналы : 2 канала
Частота : 48,0 КГц
Метод сжатия : С потерями
Размер потока : 63,8 Мбайт (8%)
Выравнивание : Соединение по промежуткам

pb.wtf



Скачать Британия через торрент http://i100.fastpic.ru/big/2018/0221/cd/524c3c642f9425e355c99c20a5cf97cd.png Скачать фильм Британия через торрент бесплантно в хорошем качестве Описание: События сериала происходят в начале новой эры, когда Британия была населена очень воинственными кельтскими племенами, которые ... 10 10 4
Торрент: Зарегистрирован [2018-02-21 15:13] · скачан: 223 раз
Статус: √ проверено
Размер: 4.91 GB
Как cкачать? Как скачать Британия через торрент | qTorrent

% Раздел Тема Автор DL S | L
Зарубежные сериалы [ 34.45 GB ] Британия / Britannia / Сезон: 1 / Серии: 1-9 из 9 [2017 WEBRip 1080p] [MVO] killermax2013 Скачать
1 | 0
Зарубежные сериалы [ 6.19 GB ] Британия / Britannia / Сезон: 1 / Серии: 1-9 из 9 [2018 WEB-DLRip] MVO [SDI Media] bober100 Скачать
5 | 1
Зарубежные сериалы [ 38.81 GB ] Британия / Britannia / Сезон: 1 / Серии: 1-9 из 9 [2018 WEB-DL 1080p] 4xMVO [Jaskier AlexFilm AMS NewStudio] bober100 Скачать
1 | 0
Зарубежные сериалы [ 7.03 GB ] Британия / Britannia / Сезон: 1 / Серии: 1-9 из 9 [2017 HDRip] [MVO] killermax2013 Скачать
1 | 0
Зарубежные сериалы [ 32.81 GB ] Британия / Britannia / 1 сезон / 1-9 серия из 9 [2018 BDRip] [1080p] [MVO] killermax2013 Скачать
1 | 0
Зарубежные сериалы [ 13.96 GB ] Британия / Britannia / 1 сезон / 1-9 серия из 9 [2018 WEB-DL 720p] [MVO] killermax2013 Скачать
1 | 0
Зарубежные сериалы [ 12.45 GB ] Британия / Britannia / Сезон: 1 / Серии: 1-9 из 9 [2017 WEB-DL 720p] MVO [Jaskier] bober100 Скачать
1 | 0

28-11-2019 20:33  

Отключить всю рекламу на сайте

    Дорогой пользователь! Огромная просьба, поблагодарите релизера, оцените раздачу и оставьте свои комментарий, если Вы скачали Британия через торрент бесплатно! Внесите свою лепту в развитие PiratBit!
    Комментировать посты могут только пользователи прошедшие не сложную регистрацию
    Показать сообщения:    

    Британия через торрент
    Скачать бесплатно Британия
    Британия скачать торрент
    Британия смотреть онлайн
    Cкачать фильм Британия бесплатно
    Британия скачать торрент в хорошем качестве
    Британия смотреть онлайн бесплатно в хорошем качестве


    Вы не можете начинать темы
    Вы не можете отвечать на сообщения
    Вы не можете редактировать свои сообщения
    Вы не можете удалять свои сообщения
    Вы не можете голосовать в опросах
    Вы не можете прикреплять файлы к сообщениям
    Вы можете скачивать файлы