Всегда рабочее зеркало без VPN и Proxy просто перед .vidak.icu напиши любое слово или цифру, Пример http://7s1o.vidak.icu

MVO

2 сезон

2 сезон

1

1 сезон

iTunes

2 сезон

13

1 сезон

Распродажа

pack

Рекомендуем

Пиратка

30

ВАЖНО

RePack

MK11

RePack

jed

RePack

fifa19

RePack

RDR2

RePack

NEED FOR SPEED™ PAYBACK

Кинопоиск HD

6 сезон

 Острые козырьки 6 сезон

Все сериалы

все сериалы на PB.wtf

RePack

FAR CRY 5

Anonymous, нам критически не хватает 5601 руб. на оплату серверов и переферии за Апрель, помоги нам пожалуйста, вся надежда только на тебя. В благодарность мы отключим тебе всю рекламу на сайте!

×
  
Magnet ссылка

Остров сокровищ / Приключения капитана Врунгеля (Давид Черкасский) [1979-1988 г., Мюзикл, приключения, BDRip-HEVC 720p / 60 FPS, Оригинальный] pb.wtf

Остров сокровищ через торрент pb.wtf

Размер: 4.59 GB | Добавлен: 4 года 2 мес. назад | Торрент скачан:1002 раза
Смотреть онлайн Остров сокровищ | Скачать    Ребята, помогите собрать деньги на оплату серверов!!!

21-02-2018 15:53 Остров сокровищ Скачать торрент  

Остров сокровищ / Приключения капитана Врунгеля
Год выпуска: 1979
Страна: СССР
Жанр: Мюзикл, приключения
Продолжительность: 04:04:31
Перевод: Оригинальный

Режиссер: Давид Черкасский



В ролях: Владимир Заднепровский, Евгений Паперный, Армен Джигарханян, Юрий Яковлевб, Валерий Бессараб, Борис Вознюк, Георгий Кишко, Валерий Чигляев, Виктор Андриенко, Григорий Толчинский;
Георгий Кишко, Зиновий Гердт, Семен Фарада, Эдуард Назаров, Евгений Паперный, Григорий Шпигель, Вениамин Смехов, Александр Бурмистров, Георгий Кислюк

Описание: Морские приключения, затерянные острова и тайны океанских просторов, пираты и погони, невероятные сокровища и исторические ценности - что может быть интереснее и увлекательнее? Все мальчишки и девчонки мечтают об этом. А их папы и мамы не перестают вспоминать удивительный мир персонажей известных авторов, воплощенный на экране одним из лучших мультипликаторов современности - Давидом Черкасским.

Качество: BDRip 720p / 60 FPS by Tiberiumsun69
Формат: MKV
Видео кодек: H.265
Аудио кодек: AC3
Видео: HEVC, 992x720 (1.378), 2500 kbps, 60.000 fps, 0.058 bpp
Аудио#1: AC3 / 2.0 / 48 kHz / 192 kbps / 16 bit | Оригинал
General
Unique ID : 302999973787669001524335698589809788191 (0xE3F3AC19AA535FAC63FC3A0D7186451F)
Complete name : D:\Torrents\Остров сокровищ и Капитан Врунгель BDRip-HEVC 720p 60fps.mkv
Format : Matroska
Format version : Version 4 / Version 2
File size : 4.59 GiB
Duration : 4 h 4 min
Overall bit rate : 2 686 kb/s
Movie name : Остров сокровищ / Приключения капитана Врунгеля (1979-1988) by Tiberiumsun69
Encoded date : UTC 2018-02-21 15:35:56
Writing application : mkvmerge v20.0.0 ('I Am The Sun') 64-bit
Writing library : libebml v1.3.5 + libmatroska v1.4.8

Video
ID : 1
Format : HEVC
Format/Info : High Efficiency Video Coding
Format profile : Main@L4@Main
Codec ID : V_MPEGH/ISO/HEVC
Duration : 4 h 4 min
Bit rate : 2 490 kb/s
Width : 992 pixels
Height : 720 pixels
Display aspect ratio : 1.378
Frame rate mode : Constant
Frame rate : 60.000 FPS
Color space : YUV
Chroma subsampling : 4:2:0
Bit depth : 8 bits
Bits/(Pixel*Frame) : 0.058
Stream size : 4.25 GiB (93%)
Writing library : x265 2.6+37-1949157705ce:[Windows][MSVC 1912][64 bit] 8bit+10bit+12bit
Encoding settings : cpuid=1173503 / frame-threads=3 / numa-pools=8 / wpp / no-pmode / no-pme / psnr / ssim / log-level=2 / input-csp=1 / input-res=992x720 / interlace=0 / total-frames=880290 / level-idc=40 / high-tier=1 / uhd-bd=0 / ref=3 / no-allow-non-conformance / no-repeat-headers / annexb / no-aud / no-hrd / info / hash=0 / no-temporal-layers / open-gop / min-keyint=25 / keyint=250 / gop-lookahead=0 / bframes=4 / b-adapt=2 / b-pyramid / bframe-bias=0 / rc-lookahead=20 / lookahead-slices=4 / scenecut=40 / radl=0 / no-intra-refresh / ctu=64 / min-cu-size=8 / no-rect / no-amp / max-tu-size=32 / tu-inter-depth=1 / tu-intra-depth=1 / limit-tu=0 / rdoq-level=0 / dynamic-rd=0.00 / no-ssim-rd / signhide / no-tskip / nr-intra=0 / nr-inter=0 / no-constrained-intra / strong-intra-smoothing / max-merge=2 / limit-refs=3 / no-limit-modes / me=1 / subme=2 / merange=57 / temporal-mvp / weightp / no-weightb / no-analyze-src-pics / deblock=0:0 / sao / no-sao-non-deblock / rd=3 / no-early-skip / rskip / no-fast-intra / no-tskip-fast / no-cu-lossless / no-b-intra / no-splitrd-skip / rdpenalty=0 / psy-rd=2.00 / psy-rdoq=0.00 / no-rd-refine / no-lossless / cbqpoffs=0 / crqpoffs=0 / rc=abr / bitrate=2500 / qcomp=0.60 / qpstep=4 / stats-write=0 / stats-read=0 / ipratio=1.40 / pbratio=1.30 / aq-mode=1 / aq-strength=1.00 / cutree / zone-count=0 / no-strict-cbr / qg-size=32 / no-rc-grain / qpmax=69 / qpmin=0 / no-const-vbv / sar=1 / overscan=0 / videoformat=5 / range=0 / colorprim=2 / transfer=2 / colormatrix=2 / chromaloc=0 / display-window=0 / max-cll=0,0 / min-luma=0 / max-luma=255 / log2-max-poc-lsb=8 / vui-timing-info / vui-hrd-info / slices=1 / no-opt-qp-pps / no-opt-ref-list-length-pps / no-multi-pass-opt-rps / scenecut-bias=0.05 / no-opt-cu-delta-qp / no-aq-motion / no-hdr / no-hdr-opt / no-dhdr10-opt / analysis-reuse-level=5 / scale-factor=0 / refine-intra=0 / refine-inter=0 / refine-mv=0 / no-limit-sao / ctu-info=0 / no-lowpass-dct / refine-mv-type=0 / copy-pic=1
Default : Yes
Forced : No

Audio
ID : 2
Format : AC-3
Format/Info : Audio Coding 3
Codec ID : A_AC3
Duration : 4 h 4 min
Bit rate mode : Constant
Bit rate : 192 kb/s
Channel(s) : 2 channels
Channel positions : Front: L R
Sampling rate : 48.0 kHz
Frame rate : 31.250 FPS (1536 SPF)
Bit depth : 16 bits
Compression mode : Lossy
Stream size : 336 MiB (7%)
Title : Dolby Digital, 2 channels
Language : Russian
Service kind : Complete Main
Default : Yes
Forced : No

Menu
00:00:00.000 : :Chapter 01
00:49:31.083 : :Chapter 02
01:51:16.916 : :Chapter 03
02:01:26.666 : :Chapter 04
02:11:28.791 : :Chapter 05
02:21:22.875 : :Chapter 06
02:31:57.958 : :Chapter 07
02:41:35.125 : :Chapter 08
02:51:50.291 : :Chapter 09
03:02:21.208 : :Chapter 10
03:12:49.249 : :Chapter 11
03:23:00.041 : :Chapter 12
03:33:35.249 : :Chapter 13
03:43:36.833 : :Chapter 14
03:53:56.916 : :Chapter 15
Просьба к переливающим на другие сайты, в оформлении указывайте пожалуйста авторство группы Авторская группа в ВК
pb.wtf



Скачать Остров сокровищ через торрент http://i103.fastpic.ru/big/2018/0218/d6/3dd479fcb35ba8a71ca38ad11152f4d6.png Скачать, смотреть онлайн Остров сокровищ бесплантно в хорошем качестве Описание: Морские приключения, затерянные острова и тайны океанских просторов, пираты и погони, невероятные сокровища и исторические ... 9.8 10 55
Info! Золотая раздача, скачанное не засчитывается.
Торрент: Зарегистрирован [2018-02-21 15:53] · скачан: 1 002 раз
Статус: √ проверено
Размер: 4.59 GB
Как cкачать? Как скачать Остров сокровищ через торрент | UTorrent

28-11-2019 20:33  

Отключить всю рекламу на сайте

21-02-2018 15:54 Остров сокровищ Скачать торрент  

pb.wtf



21-02-2018 17:07 Остров сокровищ Скачать торрент  

Спасибо Большое! pb.wtf



21-02-2018 17:17 Остров сокровищ Скачать торрент  

Супер!!!!!pb.wtf



21-02-2018 17:17 Остров сокровищ Скачать торрент  

красава pb.wtf



21-02-2018 17:18 Остров сокровищ Скачать торрент  

Давно мечтал о такой раздаче!!!! Спасибо!!!pb.wtf



21-02-2018 17:20 Остров сокровищ Скачать торрент  

БЕРУ НЕ ДУМАЯ! НИЗКИЙ ПОКЛОН!pb.wtf



21-02-2018 18:12 Остров сокровищ Скачать торрент  

ну обрадовал.... малой теперь забросит всякое разное импортное месяца на два, да и я сам тожеpb.wtf



21-02-2018 18:33 Остров сокровищ Скачать торрент  

Меня мультик своей брутальной рисовкой зацепил в детстве.)pb.wtf



21-02-2018 18:48 Остров сокровищ Скачать торрент  

Офффигенные мультики pb.wtf



21-02-2018 19:21 Остров сокровищ Скачать торрент  

телек мне с поддержкой HEVC-срочно)))pb.wtf



22-02-2018 06:57 Остров сокровищ Скачать торрент  

Мульт вечный, Спасибо братцы.pb.wtf



22-02-2018 07:27 Остров сокровищ Скачать торрент  

огромное спасибо!!!pb.wtf



22-02-2018 09:30 Остров сокровищ Скачать торрент  

А разделить мульты на отдельные файлы никак?pb.wtf



23-02-2018 07:26 Остров сокровищ Скачать торрент  

спасибо за раздачу т, только на этой неделе вспоминал про мульти этот и искать собирался !)pb.wtf



23-02-2018 17:42 Остров сокровищ Скачать торрент  

Респект, огромное спасибоpb.wtf



Друзья, наш проект PiratBit построен на чистом энтузиазме. Денег от рекламы он приносит мало, потому как нет хороших, богатых рекламодателей, которые бы хотели работать с сайтами, которые нарушают законодательство той или иной страны, да и вешать какую-то шлако-рекламу с вирусами тоже мы не хотим, поскольку мы уважаем своих пользователей и Ваша безопасность на нашем сайте для нас превыше всего. В связи с этим, мы вынуждены просить помощи у каждого из Вас. Каких-то 3, 5, 10 рублей для каждого из Вас по большому счету копейки, а для нас это будет хорошая поддержка.
Нашими приоритетами всегда были качество и быстрота везде и во всем!!!
Технически так сложилось, чтобы все "летало" мы используем 4 мощных абузоустойчивых сервера, каждый из которых стоит 100$ в месяц.
Ребята, мы будем рады любой помощи, надеюсь на понимание Devi...

Важно, если ваш платеж составляет больше 100 руб.(единоразово) то мы для вас отключим рекламу на месяц, 200=2мес., 300=3мес., 400=4мес., если больше чем 499 руб.(единоразово) то на 6 месяцев, УКАЗЫВАЙТЕ СВОЙ НИК В ПРИМЕЧАНИИ К ПЛАТЕЖУ!


Яндекс Деньги,QIWI,WebMoney,Steam,Payeer,СберБанк,Мобильный,BitCoin,PayPal

24-02-2018 03:47 Остров сокровищ Скачать торрент  

pb.wtf



24-02-2018 11:37 Остров сокровищ Скачать торрент  

Афигеееть! Спасибо! )))pb.wtf



24-02-2018 13:34 Остров сокровищ Скачать торрент  

Жаль, телевизор не прочитал формат... А есть возможность сделать в "общепринятом"? :)pb.wtf



24-02-2018 13:53 Остров сокровищ Скачать торрент  

Спасяб мои любимые мультики детства!!!!! pb.wtf



24-02-2018 14:22 Остров сокровищ Скачать торрент  

rah7, Есть возможность но нужен стимул. pb.wtf



27-02-2018 07:05 Остров сокровищ Скачать торрент  

Tiberiumsun69 писал(а):

rah7, Есть возможность но нужен стимул.

Стимул - СПАСИБО БОЛЬШОЕ!


Раздача и правда супер! Ушло бы в коллекцию. Именно 720р и 60 кадров! То что надо.pb.wtf



03-03-2018 08:27 Остров сокровищ Скачать торрент  

вот это даааа!забираю!!pb.wtf



07-03-2018 15:53 Остров сокровищ Скачать торрент  

Супер! Остров сокровищ 1988 год!
Приключения капитана Врунгеля - первый в мире мульт, где соединили анимацию и кино.pb.wtf



13-05-2018 20:37 Остров сокровищ Скачать торрент  

Спасибо. Сделайте, пожалуйста, и "Доктора Айболита" (1985) в таком же формате!pb.wtf



    Дорогой пользователь! Огромная просьба, поблагодарите релизера, оцените раздачу и оставьте свои комментарий, если Вы скачали Остров сокровищ через торрент бесплатно!
    Комментировать посты могут только пользователи прошедшие не сложную регистрацию
    Показать сообщения:    

    Остров сокровищ через торрент
    Скачать бесплатно Остров сокровищ
    Остров сокровищ скачать торрент
    Остров сокровищ смотреть онлайн
    Cкачать фильм Остров сокровищ бесплатно
    Остров сокровищ скачать торрент в хорошем качестве
    Остров сокровищ смотреть онлайн бесплатно в хорошем качестве


    Вы не можете начинать темы
    Вы не можете отвечать на сообщения
    Вы не можете редактировать свои сообщения
    Вы не можете удалять свои сообщения
    Вы не можете голосовать в опросах
    Вы не можете прикреплять файлы к сообщениям
    Вы можете скачивать файлы