Ссылка на приватное зеркало всего за 1$. Внимание количество ограничено!!!

iTunes

iTunes

iTunes

1

iTunes

iTunes

iTunes

WEBRip

iTunes

30
pack

$ от Little Big

ВАЖНО

!!Акция!!

Alien_RageХит недели

RePack

Resident Evil 21

ИГРА 18+

pack

RePack

jed

!!Акция!!

Alien_Rage

RePack

fifa19

RePack

Assassins Creed: Odyssey

RePack

NEED FOR SPEED™ PAYBACK

4 сезон

9 сезон

Бесстыжие 9 сезон

Все сериалы

все сериалы на PB.wtf

RePack

FAR CRY 5
  

Захваченные / #Captured (Джо Хомокай) [2017, триллер, BDRip 720p] MVO [@MUZOBOZ@] pb.wtf

Захваченные через торрент pb.wtf

Размер: 3.2 GB | Добавлен: 2 года 5 мес. назад | Торрент скачан:58 раз
Скачать  

21-02-2018 17:11 Захваченные Скачать торрент  

Захваченные / #CapturedГод выпуска: 2017
Страна: США
Жанр: триллер
Продолжительность: 01:22:49
Перевод: Любительский (многоголосый) [@MUZOBOZ@]
Субтитры: отсутствуют

Режиссер: Джо Хомокай

rating

В ролях:

Лиззи Гордон, Габриэль Романелло, Меган Меделлин, Чарли Йен, Коуди Бруно, Ивэн Слоун Вайнштейн, Коуди Рени Камерон, Сэм Кэйн, Дирдри Гаффни

Описание:

Группа привилегированных подростков зарабатывает тем, что снимает прямые трансляции по интернету, где они устраивают секс-вечеринки, употребляя наркотические вещества. Однако они не знали, что эти трансляции смотрит религиозный фанатик, который собирается очистить интернет от греха.

Качество: BDRip 720p
Формат: MKV
Видео кодек: H.264
Аудио кодек: AC3

Видео: 5077 Kбит/с, 1280x720
Аудио#1: Русский, (AC3, 2 ch, 448 Кбит/с)

скриншот  скриншот  скриншот  

Общее
Уникальный идентификатор : 229667149738152996162238350181447111088 (0xACC848BA4581532E8E81D021E51611B0)
Полное имя : D:\Captured.2017.P.BDRip.72Op.mkv
Формат : Matroska
Версия формата : Version 2
Размер файла : 3,20 Гбайт
Продолжительность : 1 ч. 22 м.
Режим общего битрейта : Переменный
Общий поток : 5526 Кбит/сек
Дата кодирования : UTC 2018-02-21 06:52:07
Программа кодирования : mkvmerge v8.3.0 ('Over the Horizon') 64bit
Библиотека кодирования : libebml v1.3.1 + libmatroska v1.4.2

Видео
Идентификатор : 1
Формат : AVC
Формат/Информация : Advanced Video Codec
Профиль формата : High@L4.1
Параметр CABAC формата : Да
Параметр ReFrames формата : 4 кадра
Идентификатор кодека : V_MPEG4/ISO/AVC
Продолжительность : 1 ч. 22 м.
Вид битрейта : Переменный
Битрейт : 5077 Кбит/сек
Максимальный битрейт : 6200 Кбит/сек
Ширина : 1280 пикселей
Высота : 720 пикселей
Соотношение сторон : 16:9
Режим частоты кадров : Постоянный
Частота кадров : 23,976 (24000/1001) кадра/сек
Стандарт вещания : Component
Цветовое пространство : YUV
Субдискретизация насыщенности : 4:2:0
Битовая глубина : 8 бит
Тип развёртки : Прогрессивная
Бит/(Пиксели*Кадры) : 0.225
Размер потока : 2,87 Гбайт (90%)
Default : Да
Forced : Нет
Цветовой диапазон : Limited
Основные цвета : BT.709
Характеристики трансфера : BT.709
Коэффициенты матрицы : BT.709

Аудио
Идентификатор : 2
Формат : AC-3
Формат/Информация : Audio Coding 3
Расширение режима : CM (complete main)
Параметр Endianness формата : Big
Идентификатор кодека : A_AC3
Продолжительность : 1 ч. 22 м.
Вид битрейта : Постоянный
Битрейт : 448 Кбит/сек
Каналы : 2 канала
Расположение каналов : Front: L R
Частота : 48,0 КГц
Частота кадров : 31,250 кадров/сек (1536 spf)
Метод сжатия : С потерями
Размер потока : 265 Мбайт (8%)
Default : Да
Forced : Нет

pb.wtf



Скачать Захваченные через торрент https://c.radikal.ru/c40/1802/f1/0209a2f01217.jpg Скачать фильм Захваченные через торрент бесплантно в хорошем качестве Описание: Группа привилегированных подростков зарабатывает тем, что снимает прямые трансляции по интернету, где они устраивают ... 8.2 10 5
Торрент: Зарегистрирован [2018-02-21 17:11] · скачан: 58 раз
Статус: # сомнительно
Размер: 3.2 GB
Как cкачать? Как скачать Захваченные через торрент | qTorrent

% Раздел Тема Автор DL S | L
T Фильмы (мультфильмы) cо спонсором показа (Новинки AVI/MKV) [ 698 MB ] Захваченные / #Captured [2017 HDRip] MVO [@MUZOBOZ@] Sherif Скачать
1 | 0
T Фильмы (мультфильмы) cо спонсором показа (Новинки AVI/MKV) [ 1.37 GB ] Захваченные / #Captured [2017 HDRip] MVO [@MUZOBOZ@] bober100 Скачать
1 | 0
Порно фильмы с сюжетом [ 744 MB ] Захваченная Красота / Beauty Captured [1998 Feature Anal Couples Oral Hardcore DVDRip 384p] sheker187 Скачать
1 | 0

28-11-2019 20:33  

Отключить всю рекламу на сайте

    Дорогой пользователь! Огромная просьба, поблагодарите релизера, оцените раздачу и оставьте свои комментарий, если Вы скачали Захваченные через торрент бесплатно! Внесите свою лепту в развитие PiratBit!
    Комментировать посты могут только пользователи прошедшие не сложную регистрацию
    Показать сообщения:    

    Захваченные через торрент
    Скачать бесплатно Захваченные
    Захваченные скачать торрент
    Захваченные смотреть онлайн
    Cкачать фильм Захваченные бесплатно
    Захваченные скачать торрент в хорошем качестве
    Захваченные смотреть онлайн бесплатно в хорошем качестве


    Вы не можете начинать темы
    Вы не можете отвечать на сообщения
    Вы не можете редактировать свои сообщения
    Вы не можете удалять свои сообщения
    Вы не можете голосовать в опросах
    Вы не можете прикреплять файлы к сообщениям
    Вы можете скачивать файлы