Мега распродажа FORZA HORIZON 4 ULTIMATE+ВСЕ DLC+ОНЛАЙН всего за 499р. 349 руб. (супер цена). Внимание количество ограничено!!!

iTunes

1+1

iTunes

мы

iTunes

1

1 сезон

Чернобыль

1 сезон

Ральф против интернета

Лицензия

ПШазам

8 сезон

Игра престолов

Лицензия

30
pack

ВАЖНО

!!Акция!!

Alien_RageХит недели

RePack

Resident Evil 21

ИГРА 18+

pack

RePack

Metro:Exodus

!!Акция!!

Alien_Rage

RePack

fifa19

RePack

Assassins Creed: Odyssey

RePack

NEED FOR SPEED™ PAYBACK

3 сезон

9 сезон

Бесстыжие 9 сезон

Все сериалы

все сериалы на PB.wtf

RePack

FAR CRY 5
Ребята, катастрофически не хватает 2730р. для оплаты серверов за ИЮНЬ (всвязи с блокировками трафик упал в 3 раза), 1-2р., выручайте.
  

Мост слишком далеко / A Bridge Too Far (Ричард Аттенборо) [1977 г., драма, военный, история, BDRip-AVC] 2xMVO, DVO pb.wtf

Мост слишком далеко через торрент pb.wtf

Размер: 4.37 GB | Добавлен: 1 год 5 мес. назад | Торрент скачан:6 раз
Скачать  

21-02-2018 19:03 Мост слишком далеко Скачать торрент  

Мост слишком далеко / A Bridge Too Far
Год выпуска: 1977
Страна: США, Великобритания
Жанр: драма, военный, история
Продолжительность: 02:56:12
Перевод: Профессиональный многоголосый, профессиональный двухголосый
Субтитры: Русские, английские

Режиссер: Ричард Аттенборо

rating

В ролях: Майкл Кейн, Шон Коннери, Джин Хэкмен, Энтони Хопкинс, Роберт Редфорд, Максимилиан Шелл, Эдвард Фокс, Дирк Богард, Джеймс Каан, Харди Крюгер, Райан О'Нил, Лоуренс Оливье, Лив Ульман, Денхольм Эллиотт, Джереми Кемп, Эллиотт Гулд, Вольфганг Прайс, Джон Страйд, Алан Армстронг, Майкл Бирн, Гэррик Хэгон, Джон Ратценбергер, Эрик Читти, Патрик Райкарт, Джеральд Сим, Дональд Дуглас

Описание: В сентябре 1944 года, после успешного вторжения в Нормандию, союзники готовят тайную операцию «Маркет Гарден»: дерзкий план, призванный быстро положить конец Второй мировой войне путем воздушного налета на Германию и уничтожения всех военных заводов Рейха. Однако, сочетание неудачной боевой тактики, ошибочных разведданных, невезения и плохой погоды привело к катастрофе.

Качество: BDRip-AVC (A.Bridge.Too.Far.1977.1080p.BluRay.MPEG-2.DTS-HD.MA.5.1-HDBEE)
Формат: MKV
Видео: MPEG-4 AVC, 2392 Kбит/с, 1024x436, 23.976 Кадр/с
Аудио #1: AC3, 6 ch, 384 Кбит/с | Профессиональный многоголосый (20th Century FOX)
Аудио #2: AC3, 2 ch, 192 Кбит/с | Профессиональный двухголосый (НТВ+)
Аудио #3: AC3, 2 ch, 192 Кбит/с | Профессиональный многоголосый (R5)
Аудио #4: AC3, 6 ch, 384 Кбит/с | Aнглийский
Релиз от: Koenig
скриншот   скриншот   скриншот   скриншот   скриншот   скриншот  

Общее
Уникальный идентификатор : 237081620990762746951254605830156252991 (0xB25C4262562BDF7BB241CCCC4CF0F73F)
Полное имя : A.Bridge.Too.Far.1977.BDRip.AVC.mkv
Формат : Matroska
Версия формата : Version 4 / Version 2
Размер файла : 4,37 Гбайт
Продолжительность : 2 ч. 56 м.
Общий поток : 3547 Кбит/сек
Название фильма : A.Bridge.Too.Far.1977.BDRip.AVC by Koenig
Дата кодирования : UTC 2018-02-21 10:26:50
Программа кодирования : mkvmerge v12.0.0 ('Trust / Lust') 32bit
Библиотека кодирования : libebml v1.3.4 + libmatroska v1.4.5
Обложка : Yes
Attachments : cover.jpg

Видео
Идентификатор : 1
Формат : AVC
Формат/Информация : Advanced Video Codec
Профиль формата : High@L4.1
Параметр CABAC формата : Да
Параметр ReFrames формата : 12 кадров
Идентификатор кодека : V_MPEG4/ISO/AVC
Продолжительность : 2 ч. 56 м.
Битрейт : 2392 Кбит/сек
Ширина : 1024 пикселя
Высота : 436 пикселей
Соотношение сторон : 2,35:1
Режим частоты кадров : Постоянный
Частота кадров : 23,976 (24000/1001) кадра/сек
Цветовое пространство : YUV
Субдискретизация насыщенности : 4:2:0
Битовая глубина : 8 бит
Тип развёртки : Прогрессивная
Бит/(Пиксели*Кадры) : 0.223
Размер потока : 2,94 Гбайт (67%)
Заголовок : A.Bridge.Too.Far.1977.BDRip.AVC
Библиотека кодирования : x264 core 152 r2851 ba24899
Настройки программы : cabac=1 / ref=12 / deblock=1:-3:-3 / analyse=0x3:0x133 / me=umh / subme=10 / psy=1 / psy_rd=1.00:0.08 / mixed_ref=1 / me_range=32 / chroma_me=1 / trellis=2 / 8x8dct=1 / cqm=0 / deadzone=21,11 / fast_pskip=0 / chroma_qp_offset=-3 / threads=3 / lookahead_threads=1 / sliced_threads=0 / nr=0 / decimate=1 / interlaced=0 / bluray_compat=0 / constrained_intra=0 / bframes=14 / b_pyramid=2 / b_adapt=2 / b_bias=0 / direct=3 / weightb=1 / open_gop=0 / weightp=2 / keyint=240 / keyint_min=23 / scenecut=40 / intra_refresh=0 / rc_lookahead=40 / rc=2pass / mbtree=1 / bitrate=2392 / ratetol=1.0 / qcomp=0.60 / qpmin=10 / qpmax=51 / qpstep=4 / cplxblur=20.0 / qblur=0.5 / vbv_maxrate=50000 / vbv_bufsize=62500 / nal_hrd=none / filler=0 / ip_ratio=1.40 / aq=1:1.00
Default : Да
Forced : Нет

Аудио #1
Идентификатор : 2
Формат : AC-3
Формат/Информация : Audio Coding 3
Параметр Endianness формата : Big
Идентификатор кодека : A_AC3
Продолжительность : 2 ч. 56 м.
Вид битрейта : Постоянный
Битрейт : 384 Кбит/сек
Каналы : 6 каналов
Расположение каналов : Front: L C R, Side: L R, LFE
Частота : 48,0 КГц
Частота кадров : 31,250 кадров/сек (1536 spf)
Битовая глубина : 16 бит
Метод сжатия : С потерями
Размер потока : 484 Мбайт (11%)
Заголовок : MVO - 20 th century FOX
Язык : Russian
ServiceKind/String : Complete Main
Default : Да
Forced : Нет

Аудио #2
Идентификатор : 3
Формат : AC-3
Формат/Информация : Audio Coding 3
Параметр Endianness формата : Big
Идентификатор кодека : A_AC3
Продолжительность : 2 ч. 56 м.
Вид битрейта : Постоянный
Битрейт : 192 Кбит/сек
Каналы : 2 канала
Расположение каналов : Front: L R
Частота : 48,0 КГц
Частота кадров : 31,250 кадров/сек (1536 spf)
Битовая глубина : 16 бит
Метод сжатия : С потерями
Размер потока : 242 Мбайт (5%)
Заголовок : DVO - НТВ+
Язык : Russian
ServiceKind/String : Complete Main
Default : Нет
Forced : Нет

Аудио #3
Идентификатор : 4
Формат : AC-3
Формат/Информация : Audio Coding 3
Параметр Endianness формата : Big
Идентификатор кодека : A_AC3
Продолжительность : 2 ч. 56 м.
Вид битрейта : Постоянный
Битрейт : 192 Кбит/сек
Каналы : 2 канала
Расположение каналов : Front: L R
Частота : 48,0 КГц
Частота кадров : 31,250 кадров/сек (1536 spf)
Битовая глубина : 16 бит
Метод сжатия : С потерями
Размер потока : 242 Мбайт (5%)
Заголовок : MVO - R5
Язык : Russian
ServiceKind/String : Complete Main
Default : Нет
Forced : Нет

Аудио #4
Идентификатор : 5
Формат : AC-3
Формат/Информация : Audio Coding 3
Параметр Endianness формата : Big
Идентификатор кодека : A_AC3
Продолжительность : 2 ч. 56 м.
Вид битрейта : Постоянный
Битрейт : 384 Кбит/сек
Каналы : 6 каналов
Расположение каналов : Front: L C R, Side: L R, LFE
Частота : 48,0 КГц
Частота кадров : 31,250 кадров/сек (1536 spf)
Битовая глубина : 16 бит
Метод сжатия : С потерями
Размер потока : 484 Мбайт (11%)
Язык : English
ServiceKind/String : Complete Main
Default : Нет
Forced : Нет

Текст #1
Идентификатор : 6
Формат : UTF-8
Идентификатор кодека : S_TEXT/UTF8
Идентификатор кодека/Информация : UTF-8 Plain Text
Продолжительность : 2 ч. 51 м.
Битрейт : 65 бит/сек
ElementCount : 1379
Размер потока : 81,7 Кбайт (0%)
Язык : Russian
Default : Да
Forced : Нет

Текст #2
Идентификатор : 7
Формат : UTF-8
Идентификатор кодека : S_TEXT/UTF8
Идентификатор кодека/Информация : UTF-8 Plain Text
Продолжительность : 2 ч. 50 м.
Битрейт : 42 бит/сек
ElementCount : 1460
Размер потока : 52,7 Кбайт (0%)
Язык : English
Default : Нет
Forced : Нет

Меню
00:00:00.000 : en:Logo / Prologue / Title
00:05:47.638 : en:German Army H.Q.
00:11:05.706 : en:Browning's H.Q.
00:17:58.577 : en:8 Miles From Arnhem
00:28:06.476 : en:Poor Projection
00:37:02.553 : en:"the Cavalry"
00:43:32.526 : en:Gurarantees
00:47:33.642 : en:Airborne
00:54:33.561 : en:Rod to Success?
01:03:37.855 : en:The Drop
01:07:45.311 : en:First Shots / Lunatics
01:12:46.945 : en:Further Frustrations
01:20:24.402 : en:The Son Bridge
01:26:26.806 : en:The Bridge at Arnhem
01:33:05.955 : en:Another Try at Dark
01:42:55.711 : en:Enem,Y Reinforcements
01:48:33.965 : en:Urquhart's Risk
01:52:56.019 : en:Fulfilling a Promise
01:56:59.846 : en:Bridge Building
02:02:44.982 : en:Battle at Arnhem
02:06:59.653 : en:The Supply Drop
02:15:57.858 : en:Kate / the Un-Surrender
02:19:49.923 : en:Julian Cook
02:29:16.405 : en:Rough Crossing
02:33:49.470 : en:Bridge Warfare
02:37:42.995 : en:Frost's Last Stand
02:40:39.838 : en:Germans on the Bridge
02:46:21.930 : en:Kate's Kindness

pb.wtf



Скачать Мост слишком далеко через торрент http://img12.lostpic.net/2018/02/21/fcd168cde5ec334270ffded06ae987ee.jpg Скачать фильм Мост слишком далеко через торрент бесплантно в хорошем качестве Описание: В сентябре 1944 года, после успешного вторжения в Нормандию, союзники готовят тайную операцию «Маркет Гарден»: дерзкий план, ... 5 10 1
Торрент: Зарегистрирован [2018-02-21 19:03] · скачан: 6 раз
Статус: √ проверено
Размер: 4.37 GB
Как cкачать? Как скачать Мост слишком далеко через торрент | qTorrent

% Раздел Тема Автор DL S | L
Фильмы [HD 720p, 1080p] (Хороший звук DUB, MVO) [ 11.15 GB ] Мост слишком далеко / A Bridge Too Far [1977 военный история BDRip 720p от _denis_100 / NNNB] 2xMVO DVO 2xAVO _denis_100 Скачать
1 | 0


>> Регистрируемся здесь <<






Отзывы и комментарии о схеме читаем и пишем здесь: ---> Отзывы и комментарии о схеме

Новые благодарочки в телеграм довольных пользователей:
скриншот   скриншот   скриншот   скриншот   скриншот
    Дорогой пользователь! Огромная просьба, поблагодарите релизера, оцените раздачу и оставьте свои комментарий, если Вы скачали Мост слишком далеко через торрент бесплатно! Внесите свою лепту в развитие PiratBit!
    Комментировать посты могут только пользователи прошедшие не сложную регистрацию
    Показать сообщения:    

    Мост слишком далеко через торрент
    Скачать бесплатно Мост слишком далеко
    Мост слишком далеко скачать торрент
    Мост слишком далеко смотреть онлайн
    Cкачать фильм Мост слишком далеко бесплатно
    Мост слишком далеко скачать торрент в хорошем качестве
    Мост слишком далеко смотреть онлайн бесплатно в хорошем качестве


    Вы не можете начинать темы
    Вы не можете отвечать на сообщения
    Вы не можете редактировать свои сообщения
    Вы не можете удалять свои сообщения
    Вы не можете голосовать в опросах
    Вы не можете прикреплять файлы к сообщениям
    Вы можете скачивать файлы