Ссылка на приватное зеркало всего за 1$. Внимание количество ограничено!!!

OK

1+1

iTunes

мы

OK

1

WEB-DLRip

Джокер

Пифагор

Ведьмак / The Witcher сериал

iTunes

ПШазам

ОК

Оно 2

iTunes

30
pack

Вам бонус

ВАЖНО

!!Акция!!

Alien_RageХит недели

RePack

Resident Evil 21

ИГРА 18+

pack

RePack

jed

RePack

fifa19

RePack

Assassins Creed: Odyssey

RePack

NEED FOR SPEED™ PAYBACK

4 сезон

9 сезон

Бесстыжие 9 сезон

Все сериалы

все сериалы на PB.wtf

RePack

FAR CRY 5
  

Тумстоун Расёмон / Tombstone-Rashomon (Алекс Кокс) [2017, вестерн, WEB-DL 720p] MVO ["Синема УС"] pb.wtf

Тумстоун Расёмон через торрент pb.wtf

Качают: 1 [ 0 KB/s ]
Размер: 2.89 GB | Добавлен: 1 год 11 мес. назад | Торрент скачан:49 раз
Скачать  

21-02-2018 20:15 Тумстоун Расёмон Скачать торрент  

Тумстоун Расёмон / Tombstone-RashomonГод выпуска: 2017
Страна: США
Жанр: вестерн
Продолжительность: 01:23:44
Перевод: Любительский (многоголосый) ["Синема УС"]
Субтитры: отсутствуют

Режиссер: Алекс Кокс

rating

В ролях:

Адам Ньюберри, Джесси Ли Пачеко, Кристин Дойдж, Эрик Шумахер, Бенни Ли Кеннеди, Ричард Андерсон, Джейсон Грэм, Шейн Херндон, Мишель Бауэр, Гайдн Уинстон

Описание:

История о легендарной перестрелке в Тумстоуне, рассказанная в японском стиле повествования "расёмон". События прошлого представлены с разных точек зрения всех участников произошедшего, включая Уайэта Эрпа, Дока Холидея, Кейт, Айка Клэнтона, Хаффорда и Джонни Бихена.

Качество: WEB-DL 720p
Формат: MKV
Видео кодек: H.264
Аудио кодек: AC3

Видео: 4553 Kбит/с, 1280x514
Аудио#1: Русский, (AC3, 2 ch, 384 Кбит/с)

скриншот  скриншот  скриншот  

Общее
Уникальный идентификатор : 243810036511530993144652558233532833939 (0xB76C1AE1ABD83FE3BB17E823A5DB2093)
Полное имя : D:\Tombstone.Rashomon.2017.P.WEB-Dl.72Op_KOSHARA.mkv
Формат : Matroska
Версия формата : Version 2
Размер файла : 2,89 Гбайт
Продолжительность : 1 ч. 23 м.
Режим общего битрейта : Переменный
Общий поток : 4939 Кбит/сек
Дата кодирования : UTC 2018-02-21 15:18:22
Программа кодирования : mkvmerge v8.3.0 ('Over the Horizon') 64bit
Библиотека кодирования : libebml v1.3.1 + libmatroska v1.4.2

Видео
Идентификатор : 1
Формат : AVC
Формат/Информация : Advanced Video Codec
Профиль формата : High@L4.1
Параметр CABAC формата : Да
Параметр ReFrames формата : 4 кадра
Идентификатор кодека : V_MPEG4/ISO/AVC
Продолжительность : 1 ч. 23 м.
Вид битрейта : Переменный
Битрейт : 4553 Кбит/сек
Максимальный битрейт : 5000 Кбит/сек
Ширина : 1280 пикселей
Высота : 514 пикселей
Соотношение сторон : 2,490
Режим частоты кадров : Постоянный
Частота кадров : 23,976 (24000/1001) кадра/сек
Стандарт вещания : Component
Цветовое пространство : YUV
Субдискретизация насыщенности : 4:2:0
Битовая глубина : 8 бит
Тип развёртки : Прогрессивная
Бит/(Пиксели*Кадры) : 0.283
Размер потока : 2,61 Гбайт (90%)
Default : Да
Forced : Нет
Цветовой диапазон : Limited
Основные цвета : BT.709
Характеристики трансфера : BT.709
Коэффициенты матрицы : BT.709

Аудио
Идентификатор : 2
Формат : AC-3
Формат/Информация : Audio Coding 3
Расширение режима : CM (complete main)
Параметр Endianness формата : Big
Идентификатор кодека : A_AC3
Продолжительность : 1 ч. 23 м.
Вид битрейта : Постоянный
Битрейт : 384 Кбит/сек
Каналы : 2 канала
Расположение каналов : Front: L R
Частота : 48,0 КГц
Частота кадров : 31,250 кадров/сек (1536 spf)
Метод сжатия : С потерями
Размер потока : 230 Мбайт (8%)
Default : Да
Forced : Нет

pb.wtf



Скачать Тумстоун Расёмон через торрент http://img12.lostpic.net/2018/02/21/c4c9931b2ba96def58e27c5d8ef72115.jpg Скачать фильм Тумстоун Расёмон через торрент бесплантно в хорошем качестве Описание: История о легендарной перестрелке в Тумстоуне, рассказанная в японском стиле повествования "расёмон". События прошлого ... 7.8 10 4
Торрент: Зарегистрирован [2018-02-21 20:15] · скачан: 49 раз
Статус: T временная
Размер: 2.89 GB
Как cкачать? Как скачать Тумстоун Расёмон через торрент | qTorrent

% Раздел Тема Автор DL S | L
T Фильмы (мультфильмы) cо спонсором показа (Новинки AVI/MKV) [ 1.37 GB ] Тумстоун Расёмон / Tombstone-Rashomon [2017 WEB-DLRip] MVO ["Синема УС"] bober100 Скачать
1 | 0

28-11-2019 20:33  

Отключить всю рекламу на сайте

    Дорогой пользователь! Огромная просьба, поблагодарите релизера, оцените раздачу и оставьте свои комментарий, если Вы скачали Тумстоун Расёмон через торрент бесплатно! Внесите свою лепту в развитие PiratBit!
    Комментировать посты могут только пользователи прошедшие не сложную регистрацию
    Показать сообщения:    

    Тумстоун Расёмон через торрент
    Скачать бесплатно Тумстоун Расёмон
    Тумстоун Расёмон скачать торрент
    Тумстоун Расёмон смотреть онлайн
    Cкачать фильм Тумстоун Расёмон бесплатно
    Тумстоун Расёмон скачать торрент в хорошем качестве
    Тумстоун Расёмон смотреть онлайн бесплатно в хорошем качестве


    Вы не можете начинать темы
    Вы не можете отвечать на сообщения
    Вы не можете редактировать свои сообщения
    Вы не можете удалять свои сообщения
    Вы не можете голосовать в опросах
    Вы не можете прикреплять файлы к сообщениям
    Вы можете скачивать файлы