2 сезон

iTunes

MVO

1

2 сезон

iTunes

iTunes

1 сезон

RePack

30

Новинка

ВАЖНО

ИГРА 18+

pack

RePack

MK11
pack

Легкие деньги

RePack

jed

RePack

fifa19

RePack

RDR2

RePack

NEED FOR SPEED™ PAYBACK

4 сезон

9 сезон

Бесстыжие 9 сезон

Все сериалы

все сериалы на PB.wtf

RePack

FAR CRY 5

Anonymous, доброй ночи, мы не успеваем собрать деньги на оплату серверов за декабрь и январь, помогите нам пожалуйста в это трудное время. В качестве благодарности мы отключим Вам всю рекламу на сайте (укажите свой ник в строку Ваше имя)!

×
  
Magnet ссылка

Маршалл / Marshall (Реджинальд Хадлин) [2017, драма, биография, BDRip-AVC] MVO [iTunes] pb.wtf

Маршалл через торрент pb.wtf

Размер: 2.06 GB | Добавлен: 2 года 11 мес. назад | Торрент скачан:86 раз
Скачать  

22-02-2018 04:18 Маршалл Скачать торрент  

Маршалл / MarshallГод выпуска: 2017
Страна: США
Жанр: драма, биография
Продолжительность: 01:58:30
Перевод: Профессиональный многоголосый | iTunes
Субтитры: Английские
Реклама: Отсутствует

Режиссер: Реджинальд Хадлин

rating

В ролях:

Чедвик Боузман, Джош Гад, Кейт Хадсон, Стерлинг К. Браун, Дэн Стивенс, Джеймс Кромуэлл, Киша Шарп, Роджер Гуэнвёр Смит, Деррик Баскин, Барретт Досс

Описание:

Фильм расскажет о яркой странице в биографии Тергуда Маршалла, первого афроамериканца в рядах Верховного суда США. На заре карьеры ему достаётся спорное дело о чернокожем шофёре, обвинённом своей богатой работодательницей в сексуальном нападении. Молодой Маршалл объединяется с начинающим адвокатом-евреем, чтобы в эпоху расизма и антисемитизма сделать сенсационное заявление в защиту прав и равенства граждан.

Качество: BDRip-AVC
Формат: MKV
Видео кодек: H.264
Аудио кодек: AC3

Видео: 1024x512 (2:1), 23,976 fps, x264 ~1 651 kbps avg, 0.131 bit/pixel
Аудио#1: 48 kHz, AC3 Dolby Digital, 3/2 (L,C,R,l,r) + LFE ch, ~384.00 kbps avg | RUS (iTunes)
Аудио#2: 48 kHz, AC3 Dolby Digital, 3/2 (L,C,R,l,r) + LFE ch, ~448.00 kbps avg | ENG
скриншот   скриншот   скриншот   скриншот  

Общее
Уникальный идентификатор : 220643590881279593624310055526552295636 (0xA5FE68ED57547C52BF41BD6EE42BD8D4)
Полное имя : E:\OlLanDGroup\Marshall.2017.BDRip(AVC).OlLanDGroup.mkv
Формат : Matroska
Версия формата : Version 2
Размер файла : 2,06 Гбайт
Продолжительность : 1 ч. 58 м.
Общий поток : 2484 Кбит/сек
Название фильма : Marshall.2017 #TorpedoUK#
Дата кодирования : UTC 2018-02-21 22:54:20
Программа кодирования : mkvmerge v7.8.0 ('River Man') 32bit built on Apr 3 2015 12:11:22
Библиотека кодирования : libebml v1.3.1 + libmatroska v1.4.2
Обложка : Yes
Attachments : small_cover.jpg / small_cover_land.jpg / cover.jpg / cover_land.jpg

Видео
Идентификатор : 1
Формат : AVC
Формат/Информация : Advanced Video Codec
Профиль формата : High@L4.1
Параметр CABAC формата : Да
Параметр ReFrames формата : 10 кадров
Идентификатор кодека : V_MPEG4/ISO/AVC
Продолжительность : 1 ч. 58 м.
Битрейт : 1651 Кбит/сек
Ширина : 1024 пикселя
Высота : 512 пикселей
Соотношение сторон : 2,000
Режим частоты кадров : Постоянный
Частота кадров : 23,976 (24000/1001) кадра/сек
Цветовое пространство : YUV
Субдискретизация насыщенности : 4:2:0
Битовая глубина : 8 бит
Тип развёртки : Прогрессивная
Бит/(Пиксели*Кадры) : 0.131
Размер потока : 1,33 Гбайт (65%)
Библиотека кодирования : x264 core 146 r2538 121396c
Настройки программы : cabac=1 / ref=10 / deblock=1:-3:-3 / analyse=0x3:0x133 / me=umh / subme=11 / psy=1 / psy_rd=0.98:0.07 / mixed_ref=1 / me_range=48 / chroma_me=1 / trellis=2 / 8x8dct=1 / cqm=0 / deadzone=21,11 / fast_pskip=1 / chroma_qp_offset=-3 / threads=6 / lookahead_threads=1 / sliced_threads=0 / nr=0 / decimate=1 / interlaced=0 / bluray_compat=0 / constrained_intra=0 / bframes=10 / b_pyramid=2 / b_adapt=2 / b_bias=0 / direct=3 / weightb=1 / open_gop=0 / weightp=2 / keyint=240 / keyint_min=23 / scenecut=40 / intra_refresh=0 / rc_lookahead=40 / rc=2pass / mbtree=0 / bitrate=1651 / ratetol=1.0 / qcomp=0.60 / qpmin=0 / qpmax=69 / qpstep=4 / cplxblur=20.0 / qblur=0.5 / vbv_maxrate=50000 / vbv_bufsize=62500 / nal_hrd=none / filler=0 / ip_ratio=1.40 / pb_ratio=1.30 / aq=1:1.00
Язык : English
Default : Да
Forced : Нет

Аудио #1
Идентификатор : 2
Формат : AC-3
Формат/Информация : Audio Coding 3
Расширение режима : CM (complete main)
Параметр Endianness формата : Big
Идентификатор кодека : A_AC3
Продолжительность : 1 ч. 58 м.
Вид битрейта : Постоянный
Битрейт : 384 Кбит/сек
Каналы : 6 каналов
Расположение каналов : Front: L C R, Side: L R, LFE
Частота : 48,0 КГц
Частота кадров : 31,250 кадров/сек (1536 spf)
Битовая глубина : 16 бит
Метод сжатия : С потерями
Размер потока : 325 Мбайт (15%)
Заголовок : iTunes
Язык : Russian
Default : Да
Forced : Нет

Аудио #2
Идентификатор : 3
Формат : AC-3
Формат/Информация : Audio Coding 3
Расширение режима : CM (complete main)
Параметр Endianness формата : Big
Идентификатор кодека : A_AC3
Продолжительность : 1 ч. 58 м.
Вид битрейта : Постоянный
Битрейт : 448 Кбит/сек
Каналы : 6 каналов
Расположение каналов : Front: L C R, Side: L R, LFE
Частота : 48,0 КГц
Частота кадров : 31,250 кадров/сек (1536 spf)
Битовая глубина : 16 бит
Метод сжатия : С потерями
Размер потока : 380 Мбайт (18%)
Заголовок : Original
Язык : English
Default : Нет
Forced : Нет

Текст #1
Идентификатор : 4
Формат : UTF-8
Идентификатор кодека : S_TEXT/UTF8
Идентификатор кодека/Информация : UTF-8 Plain Text
Заголовок : Full
Язык : English
Default : Нет
Forced : Нет

Текст #2
Идентификатор : 5
Формат : UTF-8
Идентификатор кодека : S_TEXT/UTF8
Идентификатор кодека/Информация : UTF-8 Plain Text
Заголовок : SDH
Язык : English
Default : Нет
Forced : Нет

Меню
00:00:00.000 : en:Chapter 01
00:05:08.891 : en:Chapter 02
00:10:40.056 : en:Chapter 03
00:16:01.669 : en:Chapter 04
00:20:57.214 : en:Chapter 05
00:27:01.161 : en:Chapter 06
00:32:53.388 : en:Chapter 07
00:37:43.636 : en:Chapter 08
00:43:36.155 : en:Chapter 09
00:49:28.757 : en:Chapter 10
00:55:40.086 : en:Chapter 11
01:00:08.479 : en:Chapter 12
01:05:07.528 : en:Chapter 13
01:10:51.121 : en:Chapter 14
01:17:03.368 : en:Chapter 15
01:25:01.262 : en:Chapter 16
01:35:37.815 : en:Chapter 17
01:39:38.889 : en:Chapter 18
01:48:05.061 : en:Chapter 19
01:52:37.751 : en:Chapter 20

pb.wtf



Скачать Маршалл через торрент http://lostpix.com/img/2018-02/22/sjmnz1snc194no7zoaz8dqaxs.jpg Скачать фильм Маршалл через торрент бесплантно в хорошем качестве Описание: Фильм расскажет о яркой странице в биографии Тергуда Маршалла, первого афроамериканца в рядах Верховного суда США. На заре ... 7.5 10 4
Торрент: Зарегистрирован [2018-02-22 04:18] · скачан: 86 раз
Статус: √ проверено
Размер: 2.06 GB
Как cкачать? Как скачать Маршалл через торрент | UTorrent

% Раздел Тема Автор DL S | L
Фильмы 2019-2020 [DVDrip, WEB-DLRip, HDrip] (DUB, MVO) [ 1.44 GB ] Хеллбой / Hellboy [2019 WEB-DLRip-AVC] [Локализованная версия] sokol_ok Скачать
7 | 0
Фильмы с авторской озвучкой [ 1.46 GB ] Небоскреб / Skyscraper [2018 BDRip] [AVO] killermax2013 Скачать
1 | 0
Фильмы с авторской озвучкой [ 2.05 GB ] Большой / Big [1988 HDRip] [Extended Cut] [AVO] killermax2013 Скачать
1 | 0
3D Фильмы [ 19.53 GB ] Небоскреб в 3Д / Skyscraper 3D [2018 BDRip 1080p] OverUnder / Вертикальная стереопара serega768 Скачать
1 | 0
Зарубежные сериалы [ 3.91 GB ] Вне времени / Timeless / Сезон: 2 / Серии 1-10 из 10 [2018 WEB-DLRip] MVO [Lostfilm] GEKADOL Скачать
1 | 0
Фильмы до 2000 г. [ 2.93 GB ] Живые / Выжить / Alive [1993 история WEB-DLRip] [MVO] + [DVO] + 2х[AVO] killermax2013 Скачать
1 | 0
Зарубежные сериалы [ 11.32 GB ] Черные паруса / Black Sails / Сезон: 4 / Серии 1-10 из 10 [2017 ЮАР WEBRip-AVC] MVO [BaibaKo] GEKADOL Скачать
1 | 0

28-11-2019 20:33  

Отключить всю рекламу на сайте

    Дорогой пользователь! Огромная просьба, поблагодарите релизера, оцените раздачу и оставьте свои комментарий, если Вы скачали Маршалл через торрент бесплатно! Внесите свою лепту в развитие PiratBit!
    Комментировать посты могут только пользователи прошедшие не сложную регистрацию
    Показать сообщения:    

    Маршалл через торрент
    Скачать бесплатно Маршалл
    Маршалл скачать торрент
    Маршалл смотреть онлайн
    Cкачать фильм Маршалл бесплатно
    Маршалл скачать торрент в хорошем качестве
    Маршалл смотреть онлайн бесплатно в хорошем качестве


    Вы не можете начинать темы
    Вы не можете отвечать на сообщения
    Вы не можете редактировать свои сообщения
    Вы не можете удалять свои сообщения
    Вы не можете голосовать в опросах
    Вы не можете прикреплять файлы к сообщениям
    Вы можете скачивать файлы