2 сезон

iTunes

MVO

1

2 сезон

iTunes

iTunes

1 сезон

RePack

30

Ultimate

ВАЖНО

ИГРА 18+

pack

RePack

MK11
pack

Легкие деньги

RePack

jed

RePack

fifa19

RePack

RDR2

RePack

NEED FOR SPEED™ PAYBACK

4 сезон

9 сезон

Бесстыжие 9 сезон

Все сериалы

все сериалы на PB.wtf

RePack

FAR CRY 5

Anonymous, доброй ночи, мы не успеваем собрать деньги на оплату серверов за декабрь и январь, помогите нам пожалуйста в это трудное время. В качестве благодарности мы отключим Вам всю рекламу на сайте (укажите свой ник в строку Ваше имя)!

×
  
Magnet ссылка

Маршалл / Marshall (Реджинальд Хадлин) [2017, драма, биография, BDRip] MVO [iTunes] pb.wtf

Маршалл через торрент pb.wtf

Размер: 2.14 GB | Добавлен: 2 года 10 мес. назад | Торрент скачан:360 раз
Скачать  

22-02-2018 07:54 Маршалл Скачать торрент  

Маршалл / MarshallГод выпуска: 2017
Страна: США
Жанр: драма, биография
Продолжительность: 01:58:30
Перевод: Профессиональный многоголосый | iTunes
Субтитры: английские (full + SDH) / отдельными файлами
Реклама: Отсутствует

Режиссер: Реджинальд Хадлин

rating

В ролях:

Чедвик Боузман, Джош Гад, Кейт Хадсон, Стерлинг К. Браун, Дэн Стивенс, Джеймс Кромуэлл, Киша Шарп, Роджер Гуэнвёр Смит, Деррик Баскин, Барретт Досс

Описание:

Фильм расскажет о яркой странице в биографии Тергуда Маршалла, первого афроамериканца в рядах Верховного суда США. На заре карьеры ему достаётся спорное дело о чернокожем шофёре, обвинённом своей богатой работодательницей в сексуальном нападении. Молодой Маршалл объединяется с начинающим адвокатом-евреем, чтобы в эпоху расизма и антисемитизма сделать сенсационное заявление в защиту прав и равенства граждан.

Качество: BDRip | исходник Marshall.2017.COMPLETE.BLURAY-LAZERS
Формат: AVI
Видео кодек: XviD
Аудио кодек: AC3

Видео: 704x352 (2.000), 23.976 fps, XviD build 67 ~1 804 kbps avg, 0.304 bit/pixel
Аудио#1: 48.0 kHz, AC3 Dolby Digital, 3/2 (L,C,R,l,r) + LFE ch, ~384 kbps | RUS
Аудио#2: 48.0 kHz, AC3 Dolby Digital, 3/2 (L,C,R,l,r) + LFE ch, ~384 kbps | ENG
скриншот   скриншот   скриншот  

General
Полное имя : Marshall_2017_BDRip_iT_by_Dalemake.avi
Формат : AVI
Формат/Информация : Audio Video Interleave
Профиль формата : OpenDML
Размер файла : 2,14 Гбайт
Продолжительность : 1 ч. 58 м.
Общий поток : 2590 Кбит/сек
Программа кодирования : VirtualDubMod 1.5.10.3 | (build 2550/release)
Библиотека кодирования : VirtualDubMod build 2550/release

Видео
Идентификатор : 0
Формат : MPEG-4 Visual
Профиль формата : Advanced Simple@L5
Параметр BVOP формата : 1
Параметр QPel формата : Нет
Параметр GMC формата : Без точки перехода
Параметр матрицы формата : Выборочная
Идентификатор кодека : XVID
Идентификатор кодека/Подсказка : XviD
Продолжительность : 1 ч. 58 м.
Битрейт : 1804 Кбит/сек
Ширина : 704 пикселя
Высота : 352 пикселя
Соотношение сторон : 2,000
Частота кадров : 23,976 кадра/сек
Цветовое пространство : YUV
Субдискретизация насыщенности : 4:2:0
Битовая глубина : 8 бит
Тип развёртки : Прогрессивная
Метод сжатия : С потерями
Бит/(Пиксели*Кадры) : 0.304
Размер потока : 1,49 Гбайт (70%)
Библиотека кодирования : XviD 67

Аудио #1
Идентификатор : 1
Формат : AC-3
Формат/Информация : Audio Coding 3
Расширение режима : CM (complete main)
Параметр Endianness формата : Big
Идентификатор кодека : 2000
Продолжительность : 1 ч. 58 м.
Вид битрейта : Постоянный
Битрейт : 384 Кбит/сек
Каналы : 6 каналов
Расположение каналов : Front: L C R, Side: L R, LFE
Частота : 48,0 КГц
Битовая глубина : 16 бит
Метод сжатия : С потерями
Размер потока : 325 Мбайт (15%)
Выравнивание : Разделение по промежуткам
Продолжительность промежутка : 42 мс. (1,00 видеокадр)
Время предзагрузки промежутка : 500 мс.

Аудио #2
Идентификатор : 2
Формат : AC-3
Формат/Информация : Audio Coding 3
Расширение режима : CM (complete main)
Параметр Endianness формата : Big
Идентификатор кодека : 2000
Продолжительность : 1 ч. 58 м.
Вид битрейта : Постоянный
Битрейт : 384 Кбит/сек
Каналы : 6 каналов
Расположение каналов : Front: L C R, Side: L R, LFE
Частота : 48,0 КГц
Битовая глубина : 16 бит
Метод сжатия : С потерями
Размер потока : 325 Мбайт (15%)
Выравнивание : Разделение по промежуткам
Продолжительность промежутка : 42 мс. (1,00 видеокадр)
Время предзагрузки промежутка : 500 мс.

pb.wtf



Скачать Маршалл через торрент http://pic1.kartinco.top/images/11/pgcba.jpg Скачать фильм Маршалл через торрент бесплантно в хорошем качестве Описание: Фильм расскажет о яркой странице в биографии Тергуда Маршалла, первого афроамериканца в рядах Верховного суда США. На заре ... 8.2 10 5
Info! Золотая раздача, скачанное не засчитывается.
Торрент: Зарегистрирован [2018-02-22 07:54] · скачан: 360 раз
Статус: √ проверено
Размер: 2.14 GB
Как cкачать? Как скачать Маршалл через торрент | UTorrent

% Раздел Тема Автор DL S | L
Фильмы 2019-2020 [DVDrip, WEB-DLRip, HDrip] (DUB, MVO) [ 1.44 GB ] Хеллбой / Hellboy [2019 WEB-DLRip-AVC] [Локализованная версия] sokol_ok Скачать
7 | 0
Фильмы с авторской озвучкой [ 1.46 GB ] Небоскреб / Skyscraper [2018 BDRip] [AVO] killermax2013 Скачать
1 | 0
Фильмы с авторской озвучкой [ 2.05 GB ] Большой / Big [1988 HDRip] [Extended Cut] [AVO] killermax2013 Скачать
1 | 0
3D Фильмы [ 19.53 GB ] Небоскреб в 3Д / Skyscraper 3D [2018 BDRip 1080p] OverUnder / Вертикальная стереопара serega768 Скачать
1 | 0
Зарубежные сериалы [ 3.91 GB ] Вне времени / Timeless / Сезон: 2 / Серии 1-10 из 10 [2018 WEB-DLRip] MVO [Lostfilm] GEKADOL Скачать
1 | 0
Фильмы до 2000 г. [ 2.93 GB ] Живые / Выжить / Alive [1993 история WEB-DLRip] [MVO] + [DVO] + 2х[AVO] killermax2013 Скачать
1 | 0
Зарубежные сериалы [ 11.32 GB ] Черные паруса / Black Sails / Сезон: 4 / Серии 1-10 из 10 [2017 ЮАР WEBRip-AVC] MVO [BaibaKo] GEKADOL Скачать
1 | 0

28-11-2019 20:33  

Отключить всю рекламу на сайте


    Дорогой пользователь! Огромная просьба, поблагодарите релизера, оцените раздачу и оставьте свои комментарий, если Вы скачали Маршалл через торрент бесплатно! Внесите свою лепту в развитие PiratBit!
    Комментировать посты могут только пользователи прошедшие не сложную регистрацию
    Показать сообщения:    

    Маршалл через торрент
    Скачать бесплатно Маршалл
    Маршалл скачать торрент
    Маршалл смотреть онлайн
    Cкачать фильм Маршалл бесплатно
    Маршалл скачать торрент в хорошем качестве
    Маршалл смотреть онлайн бесплатно в хорошем качестве


    Вы не можете начинать темы
    Вы не можете отвечать на сообщения
    Вы не можете редактировать свои сообщения
    Вы не можете удалять свои сообщения
    Вы не можете голосовать в опросах
    Вы не можете прикреплять файлы к сообщениям
    Вы можете скачивать файлы