2 сезон

iTunes

MVO

1

2 сезон

iTunes

iTunes

1 сезон

RePack

30

Ultimate

ВАЖНО

ИГРА 18+

pack

RePack

MK11
pack

Легкие деньги

RePack

jed

RePack

fifa19

RePack

RDR2

RePack

NEED FOR SPEED™ PAYBACK

4 сезон

9 сезон

Бесстыжие 9 сезон

Все сериалы

все сериалы на PB.wtf

RePack

FAR CRY 5

Anonymous, доброй ночи, мы не успеваем собрать деньги на оплату серверов за декабрь и январь, помогите нам пожалуйста в это трудное время. В качестве благодарности мы отключим Вам всю рекламу на сайте (укажите свой ник в строку Ваше имя)!

×
  
Magnet ссылка

Обитель теней / Marrowbone (Серхио Х. Санчес) [2017, ужасы, триллер, драма, WEB-DLRip-AVC] DUB [iTunes] pb.wtf

Обитель теней через торрент pb.wtf

Размер: 1.26 GB | Добавлен: 2 года 10 мес. назад | Торрент скачан:377 раз
Скачать  

22-02-2018 10:11 Обитель теней Скачать торрент  

Обитель теней / MarrowboneГод выпуска: 2017
Страна: Испания
Жанр: ужасы, триллер, драма
Продолжительность: 01:50:41
Перевод: Дублированный | iTunes
Субтитры: отсутствуют
Реклама: Отсутствует

Режиссер: Серхио Х. Санчес

rating

В ролях:

Джордж МакКэй, Аня Тейлор-Джой, Чарли Хитон, Миа Гот, Мэттью Стэгг, Николя Харрисон, Кайл Соллер, Том Фишер, Пол Джессон

Описание:

Мрачная тайна окутывает старинный особняк, в котором Джек уединённо живёт с братьями и сестрой. Однако обитель теней открыла свои двери для прекрасной незнакомки, живущей по соседству. Она пока не знает, что здесь в любой момент зловещие силы готовы нанести удар из темноты…

Качество: WEB-DLRip-AVC
Формат: MKV
Видео кодек: H.264
Аудио кодек: AC3

Видео: 1024x426 (2.40:1), 23,976 fps, x264 ~1 310 kbps avg, 0.120 bit/pixel
Аудио: 48 kHz, AC3 Dolby Digital, 3/2 (L,C,R,l,r) + LFE ch, ~384.00 kbps avg | RUS (iTunes)
скриншот   скриншот   скриншот   скриншот   скриншот   скриншот  

Общее
Уникальный идентификатор : 188156950403321030037563451200485169404 (0x8D8DB5E38028BCBC81BE90028E6398FC)
Полное имя : E:\OlLanDGroup\Marrowbone.2017.WEB-DLRip(AVC).OlLanDGroup.mkv
Формат : Matroska
Версия формата : Version 2
Размер файла : 1,26 Гбайт
Продолжительность : 1 ч. 46 м.
Общий поток : 1696 Кбит/сек
Название фильма : Marrowbone.2017 #TorpedoUK#
Дата кодирования : UTC 2018-02-22 09:44:21
Программа кодирования : mkvmerge v7.8.0 ('River Man') 32bit built on Apr 3 2015 12:11:22
Библиотека кодирования : libebml v1.3.1 + libmatroska v1.4.2

Видео
Идентификатор : 1
Формат : AVC
Формат/Информация : Advanced Video Codec
Профиль формата : High@L4.1
Параметр CABAC формата : Да
Параметр ReFrames формата : 10 кадров
Идентификатор кодека : V_MPEG4/ISO/AVC
Продолжительность : 1 ч. 46 м.
Битрейт : 1310 Кбит/сек
Ширина : 1024 пикселя
Высота : 426 пикселей
Соотношение сторон : 2,40:1
Режим частоты кадров : Постоянный
Частота кадров : 25,000 кадров/сек
Цветовое пространство : YUV
Субдискретизация насыщенности : 4:2:0
Битовая глубина : 8 бит
Тип развёртки : Прогрессивная
Бит/(Пиксели*Кадры) : 0.120
Размер потока : 969 Мбайт (75%)
Библиотека кодирования : x264 core 146 r2538 121396c
Настройки программы : cabac=1 / ref=10 / deblock=1:-2:-3 / analyse=0x3:0x133 / me=umh / subme=11 / psy=1 / psy_rd=0.97:0.07 / mixed_ref=1 / me_range=48 / chroma_me=1 / trellis=2 / 8x8dct=1 / cqm=0 / deadzone=21,11 / fast_pskip=1 / chroma_qp_offset=-3 / threads=6 / lookahead_threads=1 / sliced_threads=0 / nr=0 / decimate=1 / interlaced=0 / bluray_compat=0 / constrained_intra=0 / bframes=10 / b_pyramid=2 / b_adapt=2 / b_bias=0 / direct=3 / weightb=1 / open_gop=0 / weightp=2 / keyint=250 / keyint_min=25 / scenecut=40 / intra_refresh=0 / rc_lookahead=40 / rc=2pass / mbtree=0 / bitrate=1310 / ratetol=1.0 / qcomp=0.60 / qpmin=0 / qpmax=69 / qpstep=4 / cplxblur=20.0 / qblur=0.5 / vbv_maxrate=50000 / vbv_bufsize=62500 / nal_hrd=none / filler=0 / ip_ratio=1.40 / pb_ratio=1.30 / aq=1:1.00
Язык : English
Default : Да
Forced : Нет

Аудио
Идентификатор : 2
Формат : AC-3
Формат/Информация : Audio Coding 3
Расширение режима : CM (complete main)
Параметр Endianness формата : Big
Идентификатор кодека : A_AC3
Продолжительность : 1 ч. 46 м.
Вид битрейта : Постоянный
Битрейт : 384 Кбит/сек
Каналы : 6 каналов
Расположение каналов : Front: L C R, Side: L R, LFE
Частота : 48,0 КГц
Частота кадров : 31,250 кадров/сек (1536 spf)
Битовая глубина : 16 бит
Метод сжатия : С потерями
Размер потока : 291 Мбайт (23%)
Заголовок : iTunes
Язык : Russian
Default : Да
Forced : Нет

Меню
00:00:00.000 : en:Глава 1
00:07:13.360 : en:Глава 2
00:14:15.000 : en:Глава 3
00:21:56.400 : en:Глава 4
00:30:31.760 : en:Глава 5
00:38:09.680 : en:Глава 6
00:45:12.320 : en:Глава 7
00:52:13.800 : en:Глава 8
00:59:37.440 : en:Глава 9
01:08:16.440 : en:Глава 10
01:15:55.520 : en:Глава 11
01:23:31.680 : en:Глава 12
01:31:03.400 : en:Глава 13

pb.wtf



Скачать Обитель теней через торрент http://lostpix.com/img/2018-02/22/45ml3x1v37w4vx834y76giwlh.jpg Скачать фильм Обитель теней через торрент бесплантно в хорошем качестве Описание: Мрачная тайна окутывает старинный особняк, в котором Джек уединённо живёт с братьями и сестрой. Однако обитель теней открыла свои ... 7.8 10 8
Торрент: Зарегистрирован [2018-02-22 10:11] · скачан: 377 раз
Статус: √ проверено
Размер: 1.26 GB
Как cкачать? Как скачать Обитель теней через торрент | UTorrent

% Раздел Тема Автор DL S | L
Ultra HD (UHD: 2K, 4K, 8K) — видео сверхвысокой чёткости [ 49.59 GB ] Обитель теней / Marrowbone [2017 UHD BDRemux 2160p] [HDR] MVO + bober100 Скачать
1 | 0
Фильмы 2017 [DVDrip, WEB-DLRip, HDrip] (DUB, MVO) [ 2.13 GB ] Обитель теней / Marrowbone [2017 BDRip] - Twi7ter Скачать
1 | 0
Фильмы [HD 720p, 1080p] (Хороший звук DUB, MVO) [ 10.28 GB ] Обитель теней / Marrowbone [2017 BDRip 1080p] Ворон Скачать
2 | 0
Фильмы 2017 [DVDrip, WEB-DLRip, HDrip] (DUB, MVO) [ 1.41 GB ] Обитель теней / Marrowbone [2017 BDRip] - Twi7ter Скачать
1 | 0
Фильмы (WEB-DL 720p, 1080p) [ 3.56 GB ] Обитель теней / Marrowbone [2017 WEB-DL 720p] DUB bober100 Скачать
2 | 0
Фильмы 2017 [DVDrip, WEB-DLRip, HDrip] (DUB, MVO) [ 1.46 GB ] Обитель теней / Marrowbone [2017 HDRip] bober100 Скачать
1 | 0
Фильмы (WEB-DL 720p, 1080p) [ 3.94 GB ] Обитель теней / Marrowbone [2017 WEB-DL 1080p] 2x killermax2013 Скачать
1 | 0

28-11-2019 20:33  

Отключить всю рекламу на сайте

    Дорогой пользователь! Огромная просьба, поблагодарите релизера, оцените раздачу и оставьте свои комментарий, если Вы скачали Обитель теней через торрент бесплатно! Внесите свою лепту в развитие PiratBit!
    Комментировать посты могут только пользователи прошедшие не сложную регистрацию
    Показать сообщения:    

    Обитель теней через торрент
    Скачать бесплатно Обитель теней
    Обитель теней скачать торрент
    Обитель теней смотреть онлайн
    Cкачать фильм Обитель теней бесплатно
    Обитель теней скачать торрент в хорошем качестве
    Обитель теней смотреть онлайн бесплатно в хорошем качестве


    Вы не можете начинать темы
    Вы не можете отвечать на сообщения
    Вы не можете редактировать свои сообщения
    Вы не можете удалять свои сообщения
    Вы не можете голосовать в опросах
    Вы не можете прикреплять файлы к сообщениям
    Вы можете скачивать файлы