Ссылка на приватное зеркало всего за 1$. Внимание количество ограничено!!!

OK

1+1

iTunes

мы

OK

1

WEB-DLRip

Джокер

Пифагор

Ведьмак / The Witcher сериал

iTunes

ПШазам

ОК

Оно 2

iTunes

30
pack

Вам бонус

ВАЖНО

!!Акция!!

Alien_RageХит недели

RePack

Resident Evil 21

ИГРА 18+

pack

RePack

jed

RePack

fifa19

RePack

Assassins Creed: Odyssey

RePack

NEED FOR SPEED™ PAYBACK

4 сезон

9 сезон

Бесстыжие 9 сезон

Все сериалы

все сериалы на PB.wtf

RePack

FAR CRY 5
  

Поделись едой с соседом / Neighborhood Food Drive (Ежи Роуз) [2017, комедия, WEB-DL 720p] MVO ["Синема УС"] pb.wtf

Поделись едой с соседом через торрент pb.wtf

Размер: 2.92 GB | Добавлен: 1 год 11 мес. назад | Торрент скачан:25 раз
Скачать  

22-02-2018 10:29 Поделись едой с соседом Скачать торрент  

Поделись едой с соседом / Neighborhood Food DriveГод выпуска: 2017
Страна: США
Жанр: комедия
Продолжительность: 01:27:48
Перевод: Любительский (многоголосый) ["Синема УС"]
Субтитры: отсутствуют

Режиссер: Ежи Роуз

rating

В ролях:

Лира Хилл, Брук Банди, Руби МакКоллистер, Тед Тремпер, Рода Гриффис, Кристофер Салливан, Холли Батлер, Пит Джованьоли, Томми Хеффрон

Описание:

Две неудачливые рестораторши открыли своё дорогое заведение в районе для бедняков. Для того чтобы усмирить ненависть общественности, они решают устроить мероприятие по благотворительному сбору еды для голодающих. Найдет ли оно оклик в сердцах людей, придут ли они на него, а главное: будут ли они живыми?

Качество: WEB-DL 720p
Формат: MKV
Видео кодек: H.264
Аудио кодек: AC3

Видео: 4370 Kбит/с, 1280x534
Аудио#1: Русский, (AC3, 2 ch, 384 Кбит/с)

скриншот  скриншот  скриншот  

Общее
Уникальный идентификатор : 250352714460384190280858145847512321215 (0xBC582DCF4295D2E7AA0F710D3692CCBF)
Полное имя : D:\Neighborhood.Food.Drive.2017.P.WEB-DL.72Op_KOSHARA.mkv
Формат : Matroska
Версия формата : Version 2
Размер файла : 2,92 Гбайт
Продолжительность : 1 ч. 27 м.
Режим общего битрейта : Переменный
Общий поток : 4756 Кбит/сек
Дата кодирования : UTC 2018-02-21 18:40:06
Программа кодирования : mkvmerge v8.3.0 ('Over the Horizon') 64bit
Библиотека кодирования : libebml v1.3.1 + libmatroska v1.4.2

Видео
Идентификатор : 1
Формат : AVC
Формат/Информация : Advanced Video Codec
Профиль формата : High@L4.1
Параметр CABAC формата : Да
Параметр ReFrames формата : 4 кадра
Идентификатор кодека : V_MPEG4/ISO/AVC
Продолжительность : 1 ч. 27 м.
Вид битрейта : Переменный
Битрейт : 4370 Кбит/сек
Максимальный битрейт : 5000 Кбит/сек
Ширина : 1280 пикселей
Высота : 534 пикселя
Соотношение сторон : 2,40:1
Режим частоты кадров : Постоянный
Частота кадров : 23,976 (24000/1001) кадра/сек
Стандарт вещания : Component
Цветовое пространство : YUV
Субдискретизация насыщенности : 4:2:0
Битовая глубина : 8 бит
Тип развёртки : Прогрессивная
Бит/(Пиксели*Кадры) : 0.261
Размер потока : 2,62 Гбайт (90%)
Default : Да
Forced : Нет
Цветовой диапазон : Limited
Основные цвета : BT.709
Характеристики трансфера : BT.709
Коэффициенты матрицы : BT.709

Аудио
Идентификатор : 2
Формат : AC-3
Формат/Информация : Audio Coding 3
Расширение режима : CM (complete main)
Параметр Endianness формата : Big
Идентификатор кодека : A_AC3
Продолжительность : 1 ч. 27 м.
Вид битрейта : Постоянный
Битрейт : 384 Кбит/сек
Каналы : 2 канала
Расположение каналов : Front: L R
Частота : 48,0 КГц
Частота кадров : 31,250 кадров/сек (1536 spf)
Метод сжатия : С потерями
Размер потока : 241 Мбайт (8%)
Default : Да
Forced : Нет

pb.wtf



Скачать Поделись едой с соседом через торрент http://img12.lostpic.net/2018/02/22/70df4d4c4e465b2133659ae4a47b8fda.jpg Скачать фильм Поделись едой с соседом через торрент бесплантно в хорошем качестве Описание: Две неудачливые рестораторши открыли своё дорогое заведение в районе для бедняков. Для того чтобы усмирить ненависть ... 7.8 10 4
Торрент: Зарегистрирован [2018-02-22 10:29] · скачан: 25 раз
Статус: T временная
Размер: 2.92 GB
Как cкачать? Как скачать Поделись едой с соседом через торрент | qTorrent

% Раздел Тема Автор DL S | L
T Фильмы (мультфильмы) cо спонсором показа (Новинки AVI/MKV) [ 1.37 GB ] Поделись едой с соседом / Neighborhood Food Drive [2017 WEB-DLRip] MVO ["Синема УС"] bober100 Скачать
1 | 0

28-11-2019 20:33  

Отключить всю рекламу на сайте

    Дорогой пользователь! Огромная просьба, поблагодарите релизера, оцените раздачу и оставьте свои комментарий, если Вы скачали Поделись едой с соседом через торрент бесплатно! Внесите свою лепту в развитие PiratBit!
    Комментировать посты могут только пользователи прошедшие не сложную регистрацию
    Показать сообщения:    

    Поделись едой с соседом через торрент
    Скачать бесплатно Поделись едой с соседом
    Поделись едой с соседом скачать торрент
    Поделись едой с соседом смотреть онлайн
    Cкачать фильм Поделись едой с соседом бесплатно
    Поделись едой с соседом скачать торрент в хорошем качестве
    Поделись едой с соседом смотреть онлайн бесплатно в хорошем качестве


    Вы не можете начинать темы
    Вы не можете отвечать на сообщения
    Вы не можете редактировать свои сообщения
    Вы не можете удалять свои сообщения
    Вы не можете голосовать в опросах
    Вы не можете прикреплять файлы к сообщениям
    Вы можете скачивать файлы