Ссылка на приватное зеркало нашего сайта всего за 1$. Внимание количество ограничено!!!

2 сезон

iTunes

1 сезон

1

2 сезон

2 сезон

iTunes

1 сезон

RePack

30

Ultimate

ВАЖНО

ИГРА 18+

pack

RePack

MK11
pack

Забери бонус

RePack

jed

!!Акция!!

Alien_Rage

RePack

fifa19

RePack

Assassins Creed: Odyssey

RePack

NEED FOR SPEED™ PAYBACK

4 сезон

9 сезон

Бесстыжие 9 сезон

Все сериалы

все сериалы на PB.wtf

RePack

FAR CRY 5
  

Кувалда / Sledge Hammer! / Сезон: 1-2 / Серии 1-41 из 41 (Алан Спенсер) [1986-1988, комедия, криминал, DVDRip] [DVO] pb.wtf

Кувалда через торрент pb.wtf

Размер: 14.07 GB | Добавлен: 2 года 9 мес. назад | Торрент скачан:12 раз
Скачать  

22-02-2018 15:38 Кувалда Скачать торрент  

Кувалда / Sledge Hammer!
Год выпуска: 1986-1988
Страна: США
Жанр: Комедия, криминал
Продолжительность: 41 x ~ 00:30:00
Перевод: Профессиональный (двухголосый закадровый)

Режиссер: Алан Спенсер

В ролях: Дэвид Раш, Энн-Мари Мартин, Харрисон Пейдж, Лесли Моррис, Патти Типпо, Курт Пол, Дайан Сент-Мари, Карл Киарфалио, Марк Блэнкфилд, Джоэнн Барон

Описание: Инспектор Хаммер самый неисправимый недотёпа во всей Американской полиции! Что он и доказывает на протяжении всего сериала, но, на удивление, всегда с легкостью находит выход из любой самой сложной ситуации. Например, в одной из серий побежденный злодей решается на последнее в своей жизни злодейство. Обвязавшись динамитом, он поджигает бикфордов шнур. Все в ужасе, и только наш находчивый инспектор Хаммер принимает единственно возможное решение - тушит огонь жвачкой...

rating

Качество: DVDRip
Формат: AVI
Видео: XviD, ~ 1800 Кбит/с, 720х480
Аудио: 44.1 KHz, AC3, 2 ch, 192 Кбит/с
скриншот  скриншот  скриншот  
General
Complete name : E:\КУВАЛДА\1 СЕЗОН\01 Under the Gun.avi
Format : AVI
Format/Info : Audio Video Interleave
File size : 411 MiB
Duration : 28 min 43 s
Overall bit rate : 2 000 kb/s
Writing application : Lavf52.93.0

Video
ID : 0
Format : xvid
Codec ID : xvid
Duration : 28 min 43 s
Bit rate : 1 720 kb/s
Width : 720 pixels
Height : 480 pixels
Display aspect ratio : 4:3
Frame rate : 15.000 FPS
Scan type : Progressive
Bits/(Pixel*Frame) : 0.332
Stream size : 353 MiB (86%)

Audio
ID : 1
Format : AC-3
Format/Info : Audio Coding 3
Format settings, Endianness : Big
Codec ID : 2000
Duration : 28 min 43 s
Bit rate mode : Constant
Bit rate : 192 kb/s
Channel(s) : 2 channels
Channel positions : Front: L R
Sampling rate : 44.1 kHz
Frame rate : 28.711 FPS (1536 SPF)
Bit depth : 16 bits
Compression mode : Lossy
Stream size : 39.5 MiB (10%)
Alignment : Aligned on interleaves
Service kind : Complete Main
pb.wtf



Скачать Кувалда через торрент http://i102.fastpic.ru/big/2018/0222/6b/85c1a77a481d539acbadf9c2915c6c6b.jpg Скачать фильм Кувалда через торрент бесплантно в хорошем качестве Описание: Инспектор Хаммер самый неисправимый недотёпа во всей Американской полиции! Что он и доказывает на протяжении всего сериала, но, ... 10 10 1
Торрент: Зарегистрирован [2018-02-22 15:38] · скачан: 12 раз
Статус: √ проверено
Размер: 14.07 GB
Как cкачать? Как скачать Кувалда через торрент | qTorrent

28-11-2019 20:33  

Отключить всю рекламу на сайте

    Дорогой пользователь! Огромная просьба, поблагодарите релизера, оцените раздачу и оставьте свои комментарий, если Вы скачали Кувалда через торрент бесплатно! Внесите свою лепту в развитие PiratBit!
    Комментировать посты могут только пользователи прошедшие не сложную регистрацию
    Показать сообщения:    

    Кувалда через торрент
    Скачать бесплатно Кувалда
    Кувалда скачать торрент
    Кувалда смотреть онлайн
    Cкачать фильм Кувалда бесплатно
    Кувалда скачать торрент в хорошем качестве
    Кувалда смотреть онлайн бесплатно в хорошем качестве


    Вы не можете начинать темы
    Вы не можете отвечать на сообщения
    Вы не можете редактировать свои сообщения
    Вы не можете удалять свои сообщения
    Вы не можете голосовать в опросах
    Вы не можете прикреплять файлы к сообщениям
    Вы можете скачивать файлы