Ссылка на приватное зеркало нашего сайта всего за 1$. Внимание количество ограничено!!!

2 сезон

iTunes

iTunes

1

iTunes

iTunes

iTunes

WEBRip

iTunes

30
pack

Забери бонус

ВАЖНО

!!Акция!!

Alien_RageХит недели

RePack

RESIDENT EVIL 3: NEMESIS REMAKE

ИГРА 18+

pack

RePack

jed

!!Акция!!

Alien_Rage

RePack

fifa19

RePack

Assassins Creed: Odyssey

RePack

NEED FOR SPEED™ PAYBACK

4 сезон

9 сезон

Бесстыжие 9 сезон

Все сериалы

все сериалы на PB.wtf

RePack

FAR CRY 5
  

Черри Поп / Cherry Pop (Ассаад Якоб) [2017, мюзикл, комедия, WEB-DL 720p] MVO ["Синема УС"] pb.wtf

Черри Поп через торрент pb.wtf

Размер: 2.75 GB | Добавлен: 2 года 7 мес. назад | Торрент скачан:8 раз
Скачать  

22-02-2018 15:41 Черри Поп Скачать торрент  

Черри Поп / Cherry PopГод выпуска: 2017
Страна: США
Жанр: мюзикл, комедия
Продолжительность: 01:19:54
Перевод: Любительский (многоголосый) ["Синема УС"]
Субтитры: отсутствуют

Режиссер: Ассаад Якоб

rating

В ролях:

Ларс Берге, Токкара Джонс, Джаред Карлсон, Деннис Мидор, Дав Мейр, Майем Миллер, Мэттью Сэндерсон, Мигель Сагаз, Колдуэлл Тидикью, Аллузия

Описание:

Вас ждет безумная ночь в небольшом баре с трансвеститами. Черри Поп - это место, в котором у каждого есть возможность проявить себя. Здесь кипит настоящая жизнь, наполненная эмоциями! Новый артист, конечно же, столкнется с трудностями в ночь своего первого выступления. Главная дива переживает личную драму. Остальные артисты сорятся и мирятся, плетут интриги и пытаются вырваться вперед. Все как в настоящей жизни!

Качество: WEB-DL 720p
Формат: MKV
Видео кодек: H.264
Аудио кодек: AC3

Видео: 4533 Kбит/с, 1280x534
Аудио#1: Русский, (AC3, 2 ch, 384 Кбит/с)

скриншот  скриншот  скриншот  

Общее
Уникальный идентификатор : 243664989340864065762668755584730757995 (0xB7502B80FE5EE5A3B3420AA3C3B77B6B)
Полное имя : D:\Cherry.pop.2017.P.WEB-DL.72Op_KOSHARA.mkv
Формат : Matroska
Версия формата : Version 2
Размер файла : 2,75 Гбайт
Продолжительность : 1 ч. 19 м.
Режим общего битрейта : Переменный
Общий поток : 4918 Кбит/сек
Дата кодирования : UTC 2018-02-21 17:24:41
Программа кодирования : mkvmerge v8.3.0 ('Over the Horizon') 64bit
Библиотека кодирования : libebml v1.3.1 + libmatroska v1.4.2

Видео
Идентификатор : 1
Формат : AVC
Формат/Информация : Advanced Video Codec
Профиль формата : High@L4.1
Параметр CABAC формата : Да
Параметр ReFrames формата : 4 кадра
Идентификатор кодека : V_MPEG4/ISO/AVC
Продолжительность : 1 ч. 19 м.
Вид битрейта : Переменный
Битрейт : 4533 Кбит/сек
Максимальный битрейт : 5000 Кбит/сек
Ширина : 1280 пикселей
Высота : 534 пикселя
Соотношение сторон : 2,40:1
Режим частоты кадров : Постоянный
Частота кадров : 23,976 (24000/1001) кадра/сек
Стандарт вещания : Component
Цветовое пространство : YUV
Субдискретизация насыщенности : 4:2:0
Битовая глубина : 8 бит
Тип развёртки : Прогрессивная
Бит/(Пиксели*Кадры) : 0.271
Размер потока : 2,48 Гбайт (90%)
Default : Да
Forced : Нет
Цветовой диапазон : Limited
Основные цвета : BT.709
Характеристики трансфера : BT.709
Коэффициенты матрицы : BT.709

Аудио
Идентификатор : 2
Формат : AC-3
Формат/Информация : Audio Coding 3
Расширение режима : CM (complete main)
Параметр Endianness формата : Big
Идентификатор кодека : A_AC3
Продолжительность : 1 ч. 19 м.
Вид битрейта : Постоянный
Битрейт : 384 Кбит/сек
Каналы : 2 канала
Расположение каналов : Front: L R
Частота : 48,0 КГц
Частота кадров : 31,250 кадров/сек (1536 spf)
Метод сжатия : С потерями
Размер потока : 219 Мбайт (8%)
Default : Да
Forced : Нет

pb.wtf



Скачать Черри Поп через торрент http://img12.lostpic.net/2018/02/22/4cfb2713b7b6fff5de7e9a4d036d6928.jpg Скачать фильм Черри Поп через торрент бесплантно в хорошем качестве Описание: Вас ждет безумная ночь в небольшом баре с трансвеститами. Черри Поп - это место, в котором у каждого есть возможность проявить ... 7 10 3
Торрент: Зарегистрирован [2018-02-22 15:41] · скачан: 8 раз
Статус: T временная
Размер: 2.75 GB
Как cкачать? Как скачать Черри Поп через торрент | qTorrent

% Раздел Тема Автор DL S | L
T Фильмы (мультфильмы) cо спонсором показа (Новинки AVI/MKV) [ 1.37 GB ] Черри Поп / Cherry Pop [2017 мюзикл WEB-DLRip] MVO ["Синема УС"] bober100 Скачать
1 | 0

28-11-2019 20:33  

Отключить всю рекламу на сайте

    Дорогой пользователь! Огромная просьба, поблагодарите релизера, оцените раздачу и оставьте свои комментарий, если Вы скачали Черри Поп через торрент бесплатно! Внесите свою лепту в развитие PiratBit!
    Комментировать посты могут только пользователи прошедшие не сложную регистрацию
    Показать сообщения:    

    Черри Поп через торрент
    Скачать бесплатно Черри Поп
    Черри Поп скачать торрент
    Черри Поп смотреть онлайн
    Cкачать фильм Черри Поп бесплатно
    Черри Поп скачать торрент в хорошем качестве
    Черри Поп смотреть онлайн бесплатно в хорошем качестве


    Вы не можете начинать темы
    Вы не можете отвечать на сообщения
    Вы не можете редактировать свои сообщения
    Вы не можете удалять свои сообщения
    Вы не можете голосовать в опросах
    Вы не можете прикреплять файлы к сообщениям
    Вы можете скачивать файлы