Ссылка на приватное зеркало всего за 1$. Внимание количество ограничено!!!

OK

1+1

iTunes

мы

OK

1

WEB-DLRip

Джокер

Пифагор

Ведьмак / The Witcher сериал

iTunes

ПШазам

ОК

Оно 2

iTunes

30
pack

Вам бонус

ВАЖНО

!!Акция!!

Alien_RageХит недели

RePack

Resident Evil 21

ИГРА 18+

pack

RePack

jed

RePack

fifa19

RePack

Assassins Creed: Odyssey

RePack

NEED FOR SPEED™ PAYBACK

4 сезон

9 сезон

Бесстыжие 9 сезон

Все сериалы

все сериалы на PB.wtf

RePack

FAR CRY 5
  

Вызов мёртвых / The Summoning (Альберто Дж. Родригез) [2017, триллер, драма, детектив, WEB-DL 720p] MVO ["Синема УС"] pb.wtf

Вызов мёртвых через торрент pb.wtf

Размер: 3.01 GB | Добавлен: 1 год 11 мес. назад | Торрент скачан:62 раза
Скачать  

22-02-2018 15:56 Вызов мёртвых Скачать торрент  

Вызов мёртвых / The SummoningГод выпуска: 2017
Страна: США
Жанр: триллер, драма, детектив
Продолжительность: 01:29:53
Перевод: Любительский (многоголосый) ["Синема УС"]
Субтитры: отсутствуют

Режиссер: Альберто Дж. Родригез

rating

В ролях:

Эрик Робертс, Лейла Алмас, Хайме Севальос, Разаак Адоти, Риган Уоллес, Аарон Перило, Тодд Дженкинс, Мэнни Эрнандес, Филип Эдкинс

Описание:

Студентка юридического факультета получает задание разобраться с делом об убийстве столетней давности и обнаруживает страшные тайны, из-за которых её жизнь находится в опасности. На помощь ей приходит серьёзный, но честный детектив. Смогут ли они разгадать все тайны и остаться в живых?

Качество: WEB-DL 720p
Формат: MKV
Видео кодек: H.264
Аудио кодек: AC3

Видео: 4410 Kбит/с, 1280x536
Аудио#1: Русский, (AC3, 2 ch, 384 Кбит/с)

скриншот  скриншот  скриншот  

Общее
Уникальный идентификатор : 173149616349186021617720771968569816527 (0x8243673178616DC5B5A4F87E53CDB5CF)
Полное имя : D:\The.Summoning.2017.P.WEB-DL.72Op_KOSHARA.mkv
Формат : Matroska
Версия формата : Version 2
Размер файла : 3,01 Гбайт
Продолжительность : 1 ч. 29 м.
Режим общего битрейта : Переменный
Общий поток : 4796 Кбит/сек
Дата кодирования : UTC 2018-02-21 16:21:07
Программа кодирования : mkvmerge v8.3.0 ('Over the Horizon') 64bit
Библиотека кодирования : libebml v1.3.1 + libmatroska v1.4.2

Видео
Идентификатор : 1
Формат : AVC
Формат/Информация : Advanced Video Codec
Профиль формата : High@L4.1
Параметр CABAC формата : Да
Параметр ReFrames формата : 4 кадра
Идентификатор кодека : V_MPEG4/ISO/AVC
Продолжительность : 1 ч. 29 м.
Вид битрейта : Переменный
Битрейт : 4410 Кбит/сек
Максимальный битрейт : 5000 Кбит/сек
Ширина : 1280 пикселей
Высота : 536 пикселей
Соотношение сторон : 2,40:1
Режим частоты кадров : Постоянный
Частота кадров : 23,976 (24000/1001) кадра/сек
Стандарт вещания : Component
Цветовое пространство : YUV
Субдискретизация насыщенности : 4:2:0
Битовая глубина : 8 бит
Тип развёртки : Прогрессивная
Бит/(Пиксели*Кадры) : 0.262
Размер потока : 2,71 Гбайт (90%)
Default : Да
Forced : Нет
Цветовой диапазон : Limited
Основные цвета : BT.709
Характеристики трансфера : BT.709
Коэффициенты матрицы : BT.709

Аудио
Идентификатор : 2
Формат : AC-3
Формат/Информация : Audio Coding 3
Расширение режима : CM (complete main)
Параметр Endianness формата : Big
Идентификатор кодека : A_AC3
Продолжительность : 1 ч. 29 м.
Вид битрейта : Постоянный
Битрейт : 384 Кбит/сек
Каналы : 2 канала
Расположение каналов : Front: L R
Частота : 48,0 КГц
Частота кадров : 31,250 кадров/сек (1536 spf)
Метод сжатия : С потерями
Размер потока : 247 Мбайт (8%)
Default : Да
Forced : Нет

pb.wtf



Скачать Вызов мёртвых через торрент http://img12.lostpic.net/2018/02/22/ab5ec0dfd46ff44995580a9dc1b2d117.jpg Скачать фильм Вызов мёртвых через торрент бесплантно в хорошем качестве Описание: Студентка юридического факультета получает задание разобраться с делом об убийстве столетней давности и обнаруживает страшные ... 8.2 10 5
Торрент: Зарегистрирован [2018-02-22 15:56] · скачан: 62 раз
Статус: T временная
Размер: 3.01 GB
Как cкачать? Как скачать Вызов мёртвых через торрент | qTorrent

% Раздел Тема Автор DL S | L
T Фильмы (мультфильмы) cо спонсором показа (Новинки AVI/MKV) [ 1.37 GB ] Вызов мёртвых / The Summoning [2017 WEB-DLRip] MVO ["Синема УС"] bober100 Скачать
1 | 0

28-11-2019 20:33  

Отключить всю рекламу на сайте

    Дорогой пользователь! Огромная просьба, поблагодарите релизера, оцените раздачу и оставьте свои комментарий, если Вы скачали Вызов мёртвых через торрент бесплатно! Внесите свою лепту в развитие PiratBit!
    Комментировать посты могут только пользователи прошедшие не сложную регистрацию
    Показать сообщения:    

    Вызов мёртвых через торрент
    Скачать бесплатно Вызов мёртвых
    Вызов мёртвых скачать торрент
    Вызов мёртвых смотреть онлайн
    Cкачать фильм Вызов мёртвых бесплатно
    Вызов мёртвых скачать торрент в хорошем качестве
    Вызов мёртвых смотреть онлайн бесплатно в хорошем качестве


    Вы не можете начинать темы
    Вы не можете отвечать на сообщения
    Вы не можете редактировать свои сообщения
    Вы не можете удалять свои сообщения
    Вы не можете голосовать в опросах
    Вы не можете прикреплять файлы к сообщениям
    Вы можете скачивать файлы