Ссылка на приватное зеркало всего за 1$. Внимание количество ограничено!!!

OK

1+1

iTunes

мы

OK

1

WEB-DLRip

Джокер

Пифагор

Ведьмак / The Witcher сериал

iTunes

ПШазам

ОК

Оно 2

iTunes

30
pack

Вам бонус

ВАЖНО

!!Акция!!

Alien_RageХит недели

RePack

Resident Evil 21

ИГРА 18+

pack

RePack

jed

RePack

fifa19

RePack

Assassins Creed: Odyssey

RePack

NEED FOR SPEED™ PAYBACK

4 сезон

9 сезон

Бесстыжие 9 сезон

Все сериалы

все сериалы на PB.wtf

RePack

FAR CRY 5
  

Зомби / Zombies (Пол Хоэн) [2018, мюзикл, мелодрама, WEB-DL 720p] MVO ["Синема УС"] pb.wtf

Зомби через торрент pb.wtf

Размер: 3.32 GB | Добавлен: 1 год 11 мес. назад | Торрент скачан:14 раз
Скачать  

22-02-2018 18:10 Зомби Скачать торрент  

Зомби / ZombiesГод выпуска: 2018
Страна: США
Жанр: мюзикл, мелодрама
Продолжительность: 01:36:16
Перевод: Любительский (многоголосый) ["Синема УС"]
Субтитры: отсутствуют

Режиссер: Пол Хоэн

rating

В ролях:

Мэг Доннелли, Мило Менхейм, Эмилия МакКарти, Меган Трейнер, Кайли Расселл, Кингстон Фостер, Тревор Торджман, Ким Робертс, Брэнди Уорд, Тони Наппо

Описание:

Ученики Зомбитауна переходят в школу обычного города со своими правилами, традициями и предубеждениями.

Качество: WEB-DL 720p
Формат: MKV
Видео кодек: H.264
Аудио кодек: AC3

Видео: 4549 Kбит/с, 1280x720
Аудио#1: Русский, (AC3, 2 ch, 384 Кбит/с)

скриншот  скриншот  скриншот  

Общее
Уникальный идентификатор : 234696781236964593385382729590299760567 (0xB090F4B4C8E84DFAAAE8A87DACDD17B7)
Полное имя : D:\Zombies.2018.P.WEB-DL.72Op_KOSHARA.mkv
Формат : Matroska
Версия формата : Version 2
Размер файла : 3,32 Гбайт
Продолжительность : 1 ч. 36 м.
Режим общего битрейта : Переменный
Общий поток : 4935 Кбит/сек
Дата кодирования : UTC 2018-02-21 09:16:09
Программа кодирования : mkvmerge v8.3.0 ('Over the Horizon') 64bit
Библиотека кодирования : libebml v1.3.1 + libmatroska v1.4.2

Видео
Идентификатор : 1
Формат : AVC
Формат/Информация : Advanced Video Codec
Профиль формата : High@L4.1
Параметр CABAC формата : Да
Параметр ReFrames формата : 4 кадра
Идентификатор кодека : V_MPEG4/ISO/AVC
Продолжительность : 1 ч. 36 м.
Вид битрейта : Переменный
Битрейт : 4549 Кбит/сек
Максимальный битрейт : 5000 Кбит/сек
Ширина : 1280 пикселей
Высота : 720 пикселей
Соотношение сторон : 16:9
Режим частоты кадров : Постоянный
Частота кадров : 23,976 (24000/1001) кадра/сек
Стандарт вещания : Component
Цветовое пространство : YUV
Субдискретизация насыщенности : 4:2:0
Битовая глубина : 8 бит
Тип развёртки : Прогрессивная
Бит/(Пиксели*Кадры) : 0.202
Размер потока : 2,99 Гбайт (90%)
Default : Да
Forced : Нет
Цветовой диапазон : Limited
Основные цвета : BT.709
Характеристики трансфера : BT.709
Коэффициенты матрицы : BT.709

Аудио
Идентификатор : 2
Формат : AC-3
Формат/Информация : Audio Coding 3
Расширение режима : CM (complete main)
Параметр Endianness формата : Big
Идентификатор кодека : A_AC3
Продолжительность : 1 ч. 36 м.
Вид битрейта : Постоянный
Битрейт : 384 Кбит/сек
Каналы : 2 канала
Расположение каналов : Front: L R
Частота : 48,0 КГц
Частота кадров : 31,250 кадров/сек (1536 spf)
Метод сжатия : С потерями
Размер потока : 264 Мбайт (8%)
Default : Да
Forced : Нет

pb.wtf



Скачать Зомби через торрент http://img12.lostpic.net/2018/02/22/58e76e6134a2176af9cbda6e5b61df1b.jpg Скачать фильм Зомби через торрент бесплантно в хорошем качестве Описание: Ученики Зомбитауна переходят в школу обычного города со своими правилами, традициями и ... 10 10 2
Торрент: Зарегистрирован [2018-02-22 18:10] · скачан: 14 раз
Статус: T временная
Размер: 3.32 GB
Как cкачать? Как скачать Зомби через торрент | qTorrent

% Раздел Тема Автор DL S | L
T Фильмы (мультфильмы) cо спонсором показа (Новинки AVI/MKV) [ 2.91 GB ] Зомби в 17 / Zombie at 17 [2018 WEB-DL 720p] MVO ["Синема УС"] bober100 Скачать
1 | 0
T Фильмы (мультфильмы) cо спонсором показа (Новинки AVI/MKV) [ 1.37 GB ] Зомби в 17 / Zombie at 17 [2018 WEB-DLRip] MVO ["Синема УС"] bober100 Скачать
1 | 0
Ultra HD (UHD: 2K, 4K, 8K) — видео сверхвысокой чёткости [ 54.1 GB ] Гордость и предубеждение и зомби / Pride and Prejudice and Zombies [2015 UHD BDRemux 2160p] - [] sheker187 Скачать
1 | 0
# Фильмы (мультфильмы) cо спонсором показа (Новинки AVI/MKV) [ 3.74 GB ] Нападение южных жареных зомби / Attack of the Southern Fried Zombies [2017 BDRip 720p] MVO ["Синема УС"] bober100 Скачать
2 | 0
T Фильмы (мультфильмы) cо спонсором показа (Новинки AVI/MKV) [ 1.37 GB ] Нападение южных жареных зомби / Attack of the Southern Fried Zombies [2017 HDRip] MVO ["Синема УС"] bober100 Скачать
1 | 0
T Фильмы (мультфильмы) cо спонсором показа (Новинки AVI/MKV) [ 1.37 GB ] Зомби / Zombies [2018 мюзикл WEB-DLRip] MVO ["Синема УС"] bober100 Скачать
1 | 0
T Релизы по Парсеру [Игры, Сериалы и Фильмы и другое...] [ 1.37 GB ] Снежный человек против зомби / Bigfoot Vs. Zombies [2016 WEB-DLRip] MVO ["Синема УС"] bober100 Скачать
1 | 0

28-11-2019 20:33  

Отключить всю рекламу на сайте

    Дорогой пользователь! Огромная просьба, поблагодарите релизера, оцените раздачу и оставьте свои комментарий, если Вы скачали Зомби через торрент бесплатно! Внесите свою лепту в развитие PiratBit!
    Комментировать посты могут только пользователи прошедшие не сложную регистрацию
    Показать сообщения:    

    Зомби через торрент
    Скачать бесплатно Зомби
    Зомби скачать торрент
    Зомби смотреть онлайн
    Cкачать фильм Зомби бесплатно
    Зомби скачать торрент в хорошем качестве
    Зомби смотреть онлайн бесплатно в хорошем качестве


    Вы не можете начинать темы
    Вы не можете отвечать на сообщения
    Вы не можете редактировать свои сообщения
    Вы не можете удалять свои сообщения
    Вы не можете голосовать в опросах
    Вы не можете прикреплять файлы к сообщениям
    Вы можете скачивать файлы