Marvel's Avengers Deluxe Edition (супер цена) 159р. Внимание количество ограничено!!!

2 сезон

iTunes

iTunes

1

iTunes

iTunes

iTunes

WEBRip

iTunes

30
pack

Новость дня

ВАЖНО

!!Акция!!

Alien_RageХит недели

RePack

Horizon Zero Dawn

ИГРА 18+

pack

RePack

jed

!!Акция!!

Alien_Rage

RePack

fifa19

RePack

Assassins Creed: Odyssey

RePack

NEED FOR SPEED™ PAYBACK

4 сезон

9 сезон

Бесстыжие 9 сезон

Все сериалы

все сериалы на PB.wtf

RePack

FAR CRY 5
  

Это не я / That's Not Me (Грегори Эрдштейн) [2017, комедия, WEB-DL 720p] MVO ["Синема УС"] pb.wtf

Это не я через торрент pb.wtf

Размер: 2.87 GB | Добавлен: 2 года 6 мес. назад | Торрент скачан:20 раз
Скачать  

22-02-2018 18:53 Это не я Скачать торрент  

Это не я / That's Not MeГод выпуска: 2017
Страна: США, Австралия
Жанр: комедия
Продолжительность: 01:27:40
Перевод: Любительский (многоголосый) ["Синема УС"]

Субтитры: английские

Режиссер: Грегори Эрдштейн

rating

В ролях:

Алиса Фульчер, Изабель Лукас, Ричард Дейвис, Белинда Мисевски, Роуэн Дави, Эндрю С. Гилберт, Катрин Хилл, Ллойд Элисон-Янг, Джанин Уотсон, Стив Музакис

Описание:

Полли хочет стать актрисой, но все ее мечты рушатся, когда ее сестра-близнец взлетает на звездный пьедестал. Не желая отставать от сестры, Полли ходит на плачевные прослушивания, до боли неловкие свидания и неугодную работу в кинотеатре.

Качество: WEB-DL 720p
Формат: MKV
Видео кодек: H.264
Аудио кодек: AC3

Видео: 4298 Kбит/с, 1280x536
Аудио#1: Русский, (AC3, 2 ch, 384 Кбит/с)

скриншот  скриншот  скриншот  

Общее
Уникальный идентификатор : 244707290272724191343656440488372341863 (0xB818E8E84CAF8C19A794F27821FA0C67)
Полное имя : D:\That's Not Me 2017.P.WEB-DL.72Op_KOSHARA.mkv
Формат : Matroska
Версия формата : Version 2
Размер файла : 2,87 Гбайт
Продолжительность : 1 ч. 27 м.
Режим общего битрейта : Переменный
Общий поток : 4684 Кбит/сек
Дата кодирования : UTC 2018-02-21 16:24:27
Программа кодирования : mkvmerge v8.3.0 ('Over the Horizon') 64bit
Библиотека кодирования : libebml v1.3.1 + libmatroska v1.4.2

Видео
Идентификатор : 1
Формат : AVC
Формат/Информация : Advanced Video Codec
Профиль формата : High@L4.1
Параметр CABAC формата : Да
Параметр ReFrames формата : 4 кадра
Идентификатор кодека : V_MPEG4/ISO/AVC
Продолжительность : 1 ч. 27 м.
Вид битрейта : Переменный
Битрейт : 4298 Кбит/сек
Максимальный битрейт : 5000 Кбит/сек
Ширина : 1280 пикселей
Высота : 536 пикселей
Соотношение сторон : 2,40:1
Режим частоты кадров : Постоянный
Частота кадров : 23,976 (24000/1001) кадра/сек
Стандарт вещания : Component
Цветовое пространство : YUV
Субдискретизация насыщенности : 4:2:0
Битовая глубина : 8 бит
Тип развёртки : Прогрессивная
Бит/(Пиксели*Кадры) : 0.256
Размер потока : 2,58 Гбайт (90%)
Default : Да
Forced : Нет
Цветовой диапазон : Limited
Основные цвета : BT.709
Характеристики трансфера : BT.709
Коэффициенты матрицы : BT.709

Аудио
Идентификатор : 2
Формат : AC-3
Формат/Информация : Audio Coding 3
Расширение режима : CM (complete main)
Параметр Endianness формата : Big
Идентификатор кодека : A_AC3
Продолжительность : 1 ч. 27 м.
Вид битрейта : Постоянный
Битрейт : 384 Кбит/сек
Каналы : 2 канала
Расположение каналов : Front: L R
Частота : 48,0 КГц
Частота кадров : 31,250 кадров/сек (1536 spf)
Метод сжатия : С потерями
Размер потока : 241 Мбайт (8%)
Default : Да
Forced : Нет

pb.wtf



Скачать Это не я через торрент http://img12.lostpic.net/2018/02/22/41c2c0e226e179c3928c77c1af93fe2c.jpg Скачать фильм Это не я через торрент бесплантно в хорошем качестве Описание: Полли хочет стать актрисой, но все ее мечты рушатся, когда ее сестра-близнец взлетает на звездный пьедестал. Не желая отставать ... 10 10 2
Торрент: Зарегистрирован [2018-02-22 18:53] · скачан: 20 раз
Статус: T временная
Размер: 2.87 GB
Как cкачать? Как скачать Это не я через торрент | qTorrent

28-11-2019 20:33  

Отключить всю рекламу на сайте

    Дорогой пользователь! Огромная просьба, поблагодарите релизера, оцените раздачу и оставьте свои комментарий, если Вы скачали Это не я через торрент бесплатно! Внесите свою лепту в развитие PiratBit!
    Комментировать посты могут только пользователи прошедшие не сложную регистрацию
    Показать сообщения:    

    Это не я через торрент
    Скачать бесплатно Это не я
    Это не я скачать торрент
    Это не я смотреть онлайн
    Cкачать фильм Это не я бесплатно
    Это не я скачать торрент в хорошем качестве
    Это не я смотреть онлайн бесплатно в хорошем качестве


    Вы не можете начинать темы
    Вы не можете отвечать на сообщения
    Вы не можете редактировать свои сообщения
    Вы не можете удалять свои сообщения
    Вы не можете голосовать в опросах
    Вы не можете прикреплять файлы к сообщениям
    Вы можете скачивать файлы