2 сезон

iTunes

1 сезон

1

iTunes

iTunes

iTunes

1 сезон

RePack

30

ИГРА 18+

pack

ВАЖНО

!!Акция!!

Alien_RageХит недели

RePack

MK11
pack

Забери бонус

RePack

jed

!!Акция!!

Alien_Rage

RePack

fifa19

RePack

Assassins Creed: Odyssey

RePack

NEED FOR SPEED™ PAYBACK

4 сезон

9 сезон

Бесстыжие 9 сезон

Все сериалы

все сериалы на PB.wtf

RePack

FAR CRY 5
  

Черные бушлаты / Серия 1-4 из 4 / (Виталий Воробьев) [2018 г., Военный, Драма, Исторический, SATRip] pb.wtf

Черные бушлаты через торрент pb.wtf

Размер: 2.7 GB | Добавлен: 2 года 8 мес. назад | Торрент скачан:779 раз
Скачать  

23-02-2018 08:02 Черные бушлаты Скачать торрент  

Черные бушлаты / Серия 1-4 из 4 /
Год выпуска: 2018
Страна: Россия
Жанр: Военный, Драма, Исторический
Продолжительность: 4 х ~ 00:50:00
Субтитры: нет

Режиссер: Виталий Воробьев

В ролях: Иван Лапин, Александра Тюфтей, Александр Робак, Никита Лаврененко, Антон Филипенко, Азамат Нигманов, Вячеслав Крикунов, Анастасия Федоркова, Леонид Тимцуник, Евгений Чернорай, Никита Кудрявцев (II), Петр Пучок, Иван Латушко, Тимур Савин, Игорь Кулачко

Описание: 1941 год. Командующий Северным флотом адмирал Головин, предчувствуя неизбежность большой войны, создает специальное разведовательно-диверсионное подразделение, нацеленное на выполнение дерзких операций в тылу врага. Командиру отделения разведчиков старшине Леонтьеву в первые же дни войны поручено осуществлять корректировку огня двух эсминцев по немецкой артиллеристской батарее, расположенной в неприступном месте на скалистых берегах Баренцева моря. С отрядом разведчиков на задание идет девушка-снайпер Мария Белая, у которой есть свои счеты к «фрицам»...

Качество: SATRip
Формат: AVI
Видео кодек: XviD
Аудио кодек: AC3
Видео: XviD,704x448 25.00fps 1800kbps
Аудио#1: AC3, 2 ch, 192 Кбит/с
скриншот   скриншот   скриншот   скриншот  

General
Complete name : H:\релизы.торрентфайл\ЧЕРНЫЕ БУШЛАТЫ\Cherniy.Bushlaty.3.SATRip.[riperam.org].avi
Format : AVI
Format/Info : Audio Video Interleave
File size : 724 MiB
Duration : 50mn 34s
Overall bit rate : 2 002 Kbps
Writing application : VirtualDubMod 1.5.10.3 | www.virtualdub-fr.org || (build 2550/release)
Writing library : VirtualDubMod build 2550/release

Video
ID : 0
Format : MPEG-4 Visual
Format profile : Advanced Simple@L5
Format settings, BVOP : 2
Format settings, QPel : No
Format settings, GMC : No warppoints
Format settings, Matrix : Default (H.263)
Codec ID : XVID
Codec ID/Hint : XviD
Duration : 50mn 34s
Bit rate : 1 800 Kbps
Width : 704 pixels
Height : 448 pixels
Display aspect ratio : 1.571
Frame rate : 25.000 fps
Color space : YUV
Chroma subsampling : 4:2:0
Bit depth : 8 bits
Scan type : Progressive
Compression mode : Lossy
Bits/(Pixel*Frame) : 0.228
Stream size : 651 MiB (90%)
Writing library : XviD 1.2.1 (UTC 2008-12-04)

Audio
ID : 1
Format : AC-3
Format/Info : Audio Coding 3
Mode extension : CM (complete main)
Format settings, Endianness : Big
Codec ID : 2000
Duration : 50mn 34s
Bit rate mode : Constant
Bit rate : 192 Kbps
Channel(s) : 2 channels
Channel positions : Front: L R
Sampling rate : 48.0 KHz
Bit depth : 16 bits
Compression mode : Lossy
Stream size : 69.4 MiB (10%)
Alignment : Split accross interleaves
Interleave, duration : 40 ms (1.00 video frame)
Interleave, preload duration : 500 ms

Внимание! Раздача ведётся путём добавления новых серий; при каждом добавлении создётся новый торрент. Чтобы начать докачку новой серии, пользователям необходимо сделать следующее:
  • Остановить скачивание,
  • Удалить старый торрент у себя из клиента (старые серии удалять не надо),
  • Скачать новый торрент и запустить его у себя в клиенте вместо старого, при этом указать клиенту путь в старую папку куда и должно происходить скачивание новых серий.
Ваш клиент при этом должен произвести хеширование (проверку) старой папки (если не производит сам - помогите ему сделать это), и будет докачивать только те серии которых у вас ещё нет. Старые серии при этом не удаляются, а продолжают раздаваться!

Eсли вы уже удалили старые серии, то предотвратить повторную закачку старых серий можно, отжав галочку в соответсвующих местах при запуске нового торрента. По возможности, желательно не удалять старые серии как можно дольше чтобы релизёр не столько продолжал раздавать старые серии, а смог сконцентрироваться на новых.
pb.wtf



Скачать Черные бушлаты через торрент http://pic1.kartinco.top/images/11/lmz7p.jpg Скачать фильм Черные бушлаты через торрент бесплантно в хорошем качестве Описание: 1941 год. Командующий Северным флотом адмирал Головин, предчувствуя неизбежность большой войны, создает специальное ... 9.8 10 23
Info! Золотая раздача, скачанное не засчитывается.
Торрент: Зарегистрирован [2018-02-23 08:39] · скачан: 779 раз
Статус: √ проверено
Размер: 2.7 GB
Как cкачать? Как скачать Черные бушлаты через торрент | qTorrent

% Раздел Тема Автор DL S | L
Наши сериалы [ 9.17 GB ] Чёрные бушлаты [2018 Военный HDTV Оригинал] Бумер Скачать
1 | 0
Наши сериалы [ 2.73 GB ] Чёрные бушлаты / Серии 1-4 из 4 [2018 Военный HDTVRip] bober100 Скачать
1 | 0
Наши сериалы [ 5.05 GB ] Чёрные бушлаты / Серии 1-4 из 4 [2018 Военный HDTVRip 720p] bober100 Скачать
1 | 0
Наши сериалы [ 2.31 GB ] Чёрные бушлаты / Серии: 1-4 из 4 [2015 история военный SATRip-AVC] aleksan55 Скачать
1 | 0


Последний раз редактировалось: oleg8 (2018-02-23 08:39), всего редактировалось 1 раз

28-11-2019 20:33  

Отключить всю рекламу на сайте

23-02-2018 08:03 Черные бушлаты Скачать торрент  

С праздником воины,защитники!!!!!!pb.wtf



23-02-2018 08:40 Черные бушлаты Скачать торрент  

Добавил 4 серию.pb.wtf



23-02-2018 08:58 Черные бушлаты Скачать торрент  

oleg8 писал(а):

С праздником воины,защитники!!!!!!

спасибо ! pb.wtf



23-02-2018 12:17 Черные бушлаты Скачать торрент  

oleg8 писал(а):

С праздником воины,защитники!!!!!!

Спасибо !!!pb.wtf



23-02-2018 12:18 Черные бушлаты Скачать торрент  

Защитнику отечества,
Торжественный привет,
Желаю сил и крепости,
На много-много лет,
Пусть всё у тебя сложится,
Работа и семья,
Достаток только множится,
И так чтоб без конца!pb.wtf



23-02-2018 15:43 Черные бушлаты Скачать торрент  

А можно в MKV?pb.wtf



23-02-2018 17:04 Черные бушлаты Скачать торрент  

самые жёсткие воины в советской армии !pb.wtf



    Дорогой пользователь! Огромная просьба, поблагодарите релизера, оцените раздачу и оставьте свои комментарий, если Вы скачали Черные бушлаты через торрент бесплатно! Внесите свою лепту в развитие PiratBit!
    Комментировать посты могут только пользователи прошедшие не сложную регистрацию
    Показать сообщения:    

    Черные бушлаты через торрент
    Скачать бесплатно Черные бушлаты
    Черные бушлаты скачать торрент
    Черные бушлаты смотреть онлайн
    Cкачать фильм Черные бушлаты бесплатно
    Черные бушлаты скачать торрент в хорошем качестве
    Черные бушлаты смотреть онлайн бесплатно в хорошем качестве


    Вы не можете начинать темы
    Вы не можете отвечать на сообщения
    Вы не можете редактировать свои сообщения
    Вы не можете удалять свои сообщения
    Вы не можете голосовать в опросах
    Вы не можете прикреплять файлы к сообщениям
    Вы можете скачивать файлы