новый адрес
Ссылка на приватное зеркало всего за 1$. Внимание количество ограничено!!!

iTunes

1+1

iTunes

мы

iTunes

1

iTunes

Чернобыль

iTunes

Ральф против интернета

Лицензия

ПШазам

Лицензия

Оно 2

Лицензия

30
pack

Вам бонус

ВАЖНО

!!Акция!!

Alien_RageХит недели

RePack

Resident Evil 21

ИГРА 18+

pack

RePack

jed

!!Акция!!

Alien_Rage

RePack

fifa19

RePack

Assassins Creed: Odyssey

RePack

NEED FOR SPEED™ PAYBACK

3 сезон

9 сезон

Бесстыжие 9 сезон

Все сериалы

все сериалы на PB.wtf

RePack

FAR CRY 5
Ребята, катастрофически не хватает 1900р. для оплаты серверов за Октябрь (всвязи с блокировками трафик упал в 3 раза), 1-2р., выручайте.
  

Сезон посадок (Илья Малкин) [2018 г., Детектив, Мелодрама, SATRip, Не требуется Русский] pb.wtf

Сезон посадок через торрент pb.wtf

Раздают: 1 [ 0 KB/s ]
Размер: 1.37 GB | Добавлен: 1 год 8 мес. назад | Торрент скачан:252 раза
Скачать  

23-02-2018 09:06 Сезон посадок Скачать торрент  

Сезон посадок
Год выпуска: 2018
Страна: Россия
Жанр: Детектив, Мелодрама
Продолжительность: 01:27:11
Перевод: Не требуется Русский
Субтитры: нет

Режиссер: Илья Малкин

В ролях: Екатерина Федулова, Константин Самоуков, Светлана Смирнова-Кацагаджиева, Вячеслав Гришечкин, Мария Антонова, Эльдар Лебедев, Андрей Межулис

Описание: Редактор Вера приезжает в деревню в отпуск. Однако в первый же день выясняется, что из ее сарая пропал довольно дорогой дровокол. Девушка обращается в полицию с заявлением о пропаже. Каково же ее удивление, когда сотрудником органов оказывается Константин, автор детектива, который Вера раскритиковала накануне. А вскоре в поселке происходит убийство мужчины. По мнению Константина врача Штерна отравила молодая жена Лариса из-за желания унаследовать дом. Но Вера, как опытный редактор детективных романов, уверена, что эта ложная версия. Решив разузнать о семье Штернов побольше, Вера знакомится с младшей сестрой подозреваемой, Зоей, от которой узнает о непростых взаимоотношениях Ларисы и погибшего мужа.

Качество: SATRip
Формат: AVI
Видео кодек: XviD
Аудио кодек: AC3
Видео: 720x400 (1.80:1), 25 fps, XviD build 50 ~2042 kbps
Аудио#1: 48 kHz, AC3 Dolby Digital, 2/0 (L,R) ch, ~192 kbps
скриншот   скриншот   скриншот   скриншот  

General
Complete name : H:\релизы.торрентфайл\Sezon.posadok.SATRip.[www.riperam.org].avi
Format : AVI
Format/Info : Audio Video Interleave
File size : 1.37 GiB
Duration : 1h 27mn
Overall bit rate : 2 245 Kbps
Writing application : VirtualDubMod 1.5.10.3 | www.virtualdub-fr.org || (build 2550/release)
Writing library : VirtualDubMod build 2550/release

Video
ID : 0
Format : MPEG-4 Visual
Format profile : Advanced Simple@L5
Format settings, BVOP : 2
Format settings, QPel : No
Format settings, GMC : No warppoints
Format settings, Matrix : Default (H.263)
Codec ID : XVID
Codec ID/Hint : XviD
Duration : 1h 27mn
Bit rate : 2 043 Kbps
Width : 720 pixels
Height : 400 pixels
Display aspect ratio : 16:9
Frame rate : 25.000 fps
Color space : YUV
Chroma subsampling : 4:2:0
Bit depth : 8 bits
Scan type : Progressive
Compression mode : Lossy
Bits/(Pixel*Frame) : 0.284
Stream size : 1.24 GiB (91%)
Writing library : XviD 1.2.1 (UTC 2008-12-04)

Audio
ID : 1
Format : AC-3
Format/Info : Audio Coding 3
Mode extension : CM (complete main)
Format settings, Endianness : Big
Codec ID : 2000
Duration : 1h 27mn
Bit rate mode : Constant
Bit rate : 192 Kbps
Channel(s) : 2 channels
Channel positions : Front: L R
Sampling rate : 48.0 KHz
Bit depth : 16 bits
Compression mode : Lossy
Stream size : 120 MiB (9%)
Alignment : Split accross interleaves
Interleave, duration : 40 ms (1.00 video frame)
Interleave, preload duration : 500 ms

pb.wtf



Скачать Сезон посадок через торрент http://pic1.kartinco.top/images/11/4jvjb.jpg Скачать фильм Сезон посадок через торрент бесплантно в хорошем качестве Описание: Редактор Вера приезжает в деревню в отпуск. Однако в первый же день выясняется, что из ее сарая пропал довольно дорогой дровокол. ... 9.7 10 10
Торрент: Зарегистрирован [2018-02-23 09:06] · скачан: 252 раз
Статус: √ проверено
Размер: 1.37 GB
Как cкачать? Как скачать Сезон посадок через торрент | qTorrent

    Дорогой пользователь! Огромная просьба, поблагодарите релизера, оцените раздачу и оставьте свои комментарий, если Вы скачали Сезон посадок через торрент бесплатно! Внесите свою лепту в развитие PiratBit!
    Комментировать посты могут только пользователи прошедшие не сложную регистрацию
    Показать сообщения:    

    Сезон посадок через торрент
    Скачать бесплатно Сезон посадок
    Сезон посадок скачать торрент
    Сезон посадок смотреть онлайн
    Cкачать фильм Сезон посадок бесплатно
    Сезон посадок скачать торрент в хорошем качестве
    Сезон посадок смотреть онлайн бесплатно в хорошем качестве


    Вы не можете начинать темы
    Вы не можете отвечать на сообщения
    Вы не можете редактировать свои сообщения
    Вы не можете удалять свои сообщения
    Вы не можете голосовать в опросах
    Вы не можете прикреплять файлы к сообщениям
    Вы можете скачивать файлы