2 сезон

iTunes

MVO

1

2 сезон

iTunes

iTunes

1 сезон

RePack

30

Новинка

ВАЖНО

ИГРА 18+

pack

RePack

MK11
pack

Легкие деньги

RePack

jed

RePack

fifa19

RePack

RDR2

RePack

NEED FOR SPEED™ PAYBACK

4 сезон

9 сезон

Бесстыжие 9 сезон

Все сериалы

все сериалы на PB.wtf

RePack

FAR CRY 5

Anonymous, доброй ночи, мы не успеваем собрать деньги на оплату серверов за декабрь и январь, помогите нам пожалуйста в это трудное время. В качестве благодарности мы отключим Вам всю рекламу на сайте (укажите свой ник в строку Ваше имя)!

×
  
Magnet ссылка

D.O.A: Живым или мертвым / DOA: Dead or Alive (Кори Юэнь) [2006, боевик, приключения, BDRip 720p 60 fps от еnvy / NNNB] DUB pb.wtf

D.O.A: Живым или мертвым через торрент pb.wtf

Размер: 4.44 GB | Добавлен: 2 года 10 мес. назад | Торрент скачан:200 раз
Скачать  

24-02-2018 09:37 D.O.A: Живым или мертвым Скачать торрент  

Информация о фильме
Русское название: D.O.A: Живым или мертвым
Оригинальное название: DOA: Dead or Alive
Год выхода: 2006
Жанр: боевик, приключения
Режиссер: Кори Юэнь
Выпущено: США, Германия
Продолжительность: 01:26:10
Перевод: Дублированный
В ролях: Джэми Прессли, Холли Вэленс, Сара Картер, Девон Аоки, Наташа Мальте, Эрик Робертс, Мэттью Марсден, Брайан Уайт, Коллин Чоу, Кейн Косуги, Кевин Нэш

Описание:
«Живой или Мертвый» — название международного турнира боевых искусств, в котором состязаются лучшие бойцы со всего мира. Участники прилетают на экзотический остров, где им приходится сражаться друг с другом. Проигравший покидает остров, а победитель переходит в следующий этап. В четверть финала выходят 4 участника, которые должны продолжить борьбу за главный приз состязания — 10 млн. долларов. Но у организатора турнира Донована совсем другие планы на их счет…

Файл
Качество: BDRip 720p (исходник Blu-ray Disc Remux)
Контейнер: MKV (расширение файла)
Видео: 1280x546, 6495 Кбит/сек, 60.000 кадр/сек, AVC, x264, High@L4.1, 2.35:1, 0.155 Бит/[Пиксели*Кадры]
Аудио 1: AC-3, 448 Кбит/сек, 6 канала(ов), 48,0 КГц - Дублированный / Русский
Аудио 2: AC-3, 448 Кбит/сек, 6 канала(ов), 48,0 КГц - Оригинал / Английский
Субтитры: Русские | Полные, Английские | Полные
Форсированные субтитры: Нет
Чаптеры (Главы): Нет


Автор Рипа: Сообщество: мы в VK подписывайтесь.
Format : Matroska
Format version : Version 2
File size : 4.44 GiB
Duration : 1 h 26 min
Overall bit rate : 7 382 kb/s
Movie name : DOA: Dead or Alive.(2006).BDRip.720p.[envy].[60fps]
Encoded date : UTC 2018-02-24 08:58:37
Writing application : mkvmerge v5.8.0 ('No Sleep / Pillow') built on Sep 2 2012 15:37:04
Writing library : libebml v1.2.3 + libmatroska v1.3.0

Video
ID : 1
Format : AVC
Format/Info : Advanced Video Codec
Format profile : High@L4.1
Format settings : CABAC / 9 Ref Frames
Format settings, CABAC : Yes
Format settings, ReFrames : 9 frames
Codec ID : V_MPEG4/ISO/AVC
Duration : 1 h 26 min
Bit rate : 6 495 kb/s
Width : 1 280 pixels
Height : 546 pixels
Display aspect ratio : 2.35:1
Frame rate mode : Constant
Frame rate : 60.000 FPS
Color space : YUV
Chroma subsampling : 4:2:0
Bit depth : 8 bits
Scan type : Progressive
Bits/(Pixel*Frame) : 0.155
Stream size : 3.82 GiB (86%)
Title : DOA: Dead or Alive.(2006).BDRip.720p.[envy].[60fps]
Writing library : x264 core 146 r2538 121396c
Encoding settings : cabac=1 / ref=9 / deblock=1:0:0 / analyse=0x3:0x113 / me=umh / subme=10 / psy=1 / psy_rd=1.00:0.00 / mixed_ref=1 / me_range=24 / chroma_me=1 / trellis=2 / 8x8dct=1 / cqm=0 / deadzone=21,11 / fast_pskip=0 / chroma_qp_offset=-2 / threads=12 / lookahead_threads=1 / sliced_threads=0 / nr=0 / decimate=1 / interlaced=0 / bluray_compat=0 / constrained_intra=0 / bframes=5 / b_pyramid=2 / b_adapt=2 / b_bias=0 / direct=3 / weightb=1 / open_gop=0 / weightp=2 / keyint=250 / keyint_min=25 / scenecut=40 / intra_refresh=0 / rc=2pass / mbtree=0 / bitrate=6495 / ratetol=1.0 / qcomp=0.60 / qpmin=0 / qpmax=69 / qpstep=4 / cplxblur=20.0 / qblur=0.5 / ip_ratio=1.40 / pb_ratio=1.30 / aq=3:1.00
Language : English
Default : Yes
Forced : No

Audio #1
ID : 2
Format : AC-3
Format/Info : Audio Coding 3
Codec ID : A_AC3
Duration : 1 h 26 min
Bit rate mode : Constant
Bit rate : 448 kb/s
Channel(s) : 6 channels
Channel positions : Front: L C R, Side: L R, LFE
Sampling rate : 48.0 kHz
Frame rate : 31.250 FPS (1536 SPF)
Bit depth : 16 bits
Compression mode : Lossy
Stream size : 276 MiB (6%)
Title : Dub
Language : Russian
Service kind : Complete Main
Default : Yes
Forced : No

Audio #2
ID : 3
Format : AC-3
Format/Info : Audio Coding 3
Codec ID : A_AC3
Duration : 1 h 26 min
Bit rate mode : Constant
Bit rate : 448 kb/s
Channel(s) : 6 channels
Channel positions : Front: L C R, Side: L R, LFE
Sampling rate : 48.0 kHz
Frame rate : 31.250 FPS (1536 SPF)
Bit depth : 16 bits
Compression mode : Lossy
Stream size : 276 MiB (6%)
Title : Eng
Language : English
Service kind : Complete Main
Default : No
Forced : No

Text #1
ID : 4
Format : UTF-8
Codec ID : S_TEXT/UTF8
Codec ID/Info : UTF-8 Plain Text
Title : Rus full
Language : Russian
Default : No
Forced : No

Text #2
ID : 5
Format : UTF-8
Codec ID : S_TEXT/UTF8
Codec ID/Info : UTF-8 Plain Text
Title : Eng full
Language : English
Default : No
Forced : No
Прежде чем скачивать фильм полностью, скачайте "сэмпл", и проверьте будет ли воспроизводится видео на вашем устройстве!

Q: Присутствуют ли артефакты на изображении?
A: Да, есть, и будут, какие настройки скритпа не вписывай они будут постоянно! Так как это дорисованные кадры из исходных + Видео ряд обработан фильтром "Sharp"

Q: У меня не запускается видео на компьютере?
A: Обновите кодеки. (попробуйте другие видео проигрыватели)

Q: У меня идет рассинхрон звука и видео?
A: Проблема в мощности компьютера. (возможно также нужно обновить кодеки)

Q: Что нужно для воспроизведения данного видео.
A: Что рекомендуется для воспроизведения мной:
Процессор: 4х ядерный
Видео карта: минимум 512Мб. И желательно включить обработку изображения с помощью видео карты. (Деинтерлейсинг, подавление блочности и т.д.)
ОЗУ: 2-4Гб

Проигрыватели.
MPC-HC (Media Player Classic - Home Cinema)
The KMPlayer (Korean Multimedia Player) (оптимальный вариант)
Mirillis Splash PRO (Если что то проигрыватель сам может преобразовывать видео вплоть до частоты кадров монитора. Или тех же 60fps.)
^Прежде чем отписывать комментарии по качеству, прочитайте спойлер!

pb.wtf



Скачать D.O.A: Живым или мертвым через торрент http://img12.lostpic.net/2018/02/24/a52838355714af4fa2cfb1e027135d47.png Скачать фильм D.O.A: Живым или мертвым через торрент бесплантно в хорошем качестве Описание:«Живой или Мертвый» — название международного турнира боевых искусств, в котором состязаются лучшие бойцы со всего мира. Участники ... 8.9 10 8
Info! Золотая раздача, скачанное не засчитывается.
Торрент: Зарегистрирован [2018-02-24 09:37] · скачан: 200 раз
Статус: √ проверено
Размер: 4.44 GB
Как cкачать? Как скачать D.O.A: Живым или мертвым через торрент | UTorrent

% Раздел Тема Автор DL S | L
Фильмы 2006-2008 [ 2.06 GB ] D.O.A.: Живым или мертвым / DOA: Dead or Alive [2006 DVDRip-AVC] [Fullscreen] killermax2013 Скачать
1 | 0

28-11-2019 20:33  

Отключить всю рекламу на сайте

24-02-2018 11:58 D.O.A: Живым или мертвым Скачать торрент  

x264 [info]: frame I:1899 Avg QP:18.55 size: 95695
x264 [info]: frame P:88960 Avg QP:20.90 size: 26365
x264 [info]: frame B:219360 Avg QP:23.05 size: 7581pb.wtf



    Дорогой пользователь! Огромная просьба, поблагодарите релизера, оцените раздачу и оставьте свои комментарий, если Вы скачали D.O.A: Живым или мертвым через торрент бесплатно! Внесите свою лепту в развитие PiratBit!
    Комментировать посты могут только пользователи прошедшие не сложную регистрацию
    Показать сообщения:    

    D.O.A: Живым или мертвым через торрент
    Скачать бесплатно D.O.A: Живым или мертвым
    D.O.A: Живым или мертвым скачать торрент
    D.O.A: Живым или мертвым смотреть онлайн
    Cкачать фильм D.O.A: Живым или мертвым бесплатно
    D.O.A: Живым или мертвым скачать торрент в хорошем качестве
    D.O.A: Живым или мертвым смотреть онлайн бесплатно в хорошем качестве


    Вы не можете начинать темы
    Вы не можете отвечать на сообщения
    Вы не можете редактировать свои сообщения
    Вы не можете удалять свои сообщения
    Вы не можете голосовать в опросах
    Вы не можете прикреплять файлы к сообщениям
    Вы можете скачивать файлы