1 сезон

1 сезон

iTunes

1

КиноПоиск HD

Кинопоиск HD

iTunes

13

1 сезон

RePack

30

Новинка

ВАЖНО

ИГРА 18+

pack

RePack

MK11
pack

Легкие деньги

RePack

jed

RePack

fifa19

RePack

RDR2

RePack

NEED FOR SPEED™ PAYBACK

4 сезон

9 сезон

Бесстыжие 9 сезон

Все сериалы

все сериалы на PB.wtf

RePack

FAR CRY 5
  
Magnet ссылка

Легенда о Джонни Линго / The Legend of Johnny Lingo (Стивен Рамирез) [2003 г, боевик, приключения, семейный, WEBRip] MVO pb.wtf

Легенда о Джонни Линго через торрент pb.wtf

Размер: 1.45 GB | Добавлен: 3 года 1 мес. назад | Торрент скачан:10 раз
Скачать  

24-02-2018 10:41 Легенда о Джонни Линго Скачать торрент  

Легенда о Джонни Линго / The Legend of Johnny Lingo
Год выпуска: 2003
Страна: Новая Зеландия
Жанр: боевик, приключения, семейный
Продолжительность: 01:31:26
Перевод: Профессиональный (многоголосый)

Режиссер: Стивен Рамирез

rating

В ролях: Джордж Хинар, Равири Паратене, Джо Фолау, Элвин Фитисеману, Кэйти Фергюсон, Питер Са’эна-Браун, Хори Ахипене, Джим Перри

Описание: Когда на остров Малио обрушиваются жестокие шторма, островитяне обращаются к богам. Но все, что они получают - каноэ, в котором лежит маленький мальчик. Однако, вождь племени считает ребенка подарком богов и объявляет его своим сыном и будущим вождем...

Качество: WEBRip
Формат: AVI
Видео: XviD, 1742 Кбит/с, 704x400, 23.976 Кадр/с
Аудио #1: MP3, 2 ch, 128 Кбит/с | Русский
Аудио #2: AC3, 6 ch, 384 Кбит/с | Aнглийский
Релиз от: Koenig
скриншот   скриншот   скриншот   скриншот   скриншот   скриншот  

Общее
Полное имя : The.Legend.of.Johnny.Lingo.2003.WEBRip.avi
Формат : AVI
Формат/Информация : Audio Video Interleave
Размер файла : 1,45 Гбайт
Продолжительность : 1 ч. 31 м.
Общий поток : 2268 Кбит/сек
Программа кодирования : VirtualDubMod 1.5.10.2 (build 2540/release)
Библиотека кодирования : VirtualDubMod build 2540/release

Видео
Идентификатор : 0
Формат : MPEG-4 Visual
Профиль формата : Advanced Simple@L5
Параметр BVOP формата : 1
Параметр QPel формата : Нет
Параметр GMC формата : Без точки перехода
Параметр матрицы формата : Выборочная
Идентификатор кодека : XVID
Идентификатор кодека/Подсказка : XviD
Продолжительность : 1 ч. 31 м.
Битрейт : 1742 Кбит/сек
Ширина : 704 пикселя
Высота : 400 пикселей
Соотношение сторон : 16:9
Частота кадров : 23,976 (24000/1001) кадра/сек
Цветовое пространство : YUV
Субдискретизация насыщенности : 4:2:0
Битовая глубина : 8 бит
Тип развёртки : Прогрессивная
Метод сжатия : С потерями
Бит/(Пиксели*Кадры) : 0.258
Размер потока : 1,11 Гбайт (77%)
Библиотека кодирования : XviD 65

Аудио #1
Идентификатор : 1
Формат : MPEG Audio
Версия формата : Version 1
Профиль формата : Layer 3
Расширение режима : MS Stereo
Идентификатор кодека : 55
Идентификатор кодека/Подсказка : MP3
Продолжительность : 1 ч. 31 м.
Вид битрейта : Постоянный
Битрейт : 128 Кбит/сек
Каналы : 2 канала
Частота : 44,1 КГц
Метод сжатия : С потерями
Размер потока : 83,6 Мбайт (6%)
Выравнивание : Разделение по промежуткам
Продолжительность промежутка : 42 мс. (1,00 видеокадр)
Время предзагрузки промежутка : 500 мс.

Аудио #2
Идентификатор : 2
Формат : AC-3
Формат/Информация : Audio Coding 3
Параметр Endianness формата : Big
Идентификатор кодека : 2000
Продолжительность : 1 ч. 31 м.
Вид битрейта : Постоянный
Битрейт : 384 Кбит/сек
Каналы : 6 каналов
Расположение каналов : Front: L C R, Side: L R, LFE
Частота : 44,1 КГц
Частота кадров : 28,711 кадров/сек (1536 spf)
Битовая глубина : 16 бит
Метод сжатия : С потерями
Размер потока : 251 Мбайт (17%)
Выравнивание : Разделение по промежуткам
Продолжительность промежутка : 42 мс. (1,00 видеокадр)
Время предзагрузки промежутка : 500 мс.
ServiceKind/String : Complete Main

pb.wtf



Скачать Легенда о Джонни Линго через торрент http://img12.lostpic.net/2018/02/24/2ddeb749cce3ffb25f0c0be7c2970985.jpg Скачать фильм Легенда о Джонни Линго через торрент бесплантно в хорошем качестве Описание: Когда на остров Малио обрушиваются жестокие шторма, островитяне обращаются к богам. Но все, что они получают - каноэ, в котором ... 10 10 1
Торрент: Зарегистрирован [2018-02-24 10:41] · скачан: 10 раз
Статус: √ проверено
Размер: 1.45 GB
Как cкачать? Как скачать Легенда о Джонни Линго через торрент | UTorrent

28-11-2019 20:33  

Отключить всю рекламу на сайте

    Дорогой пользователь! Огромная просьба, поблагодарите релизера, оцените раздачу и оставьте свои комментарий, если Вы скачали Легенда о Джонни Линго через торрент бесплатно! Внесите свою лепту в развитие PiratBit!
    Комментировать посты могут только пользователи прошедшие не сложную регистрацию
    Показать сообщения:    

    Легенда о Джонни Линго через торрент
    Скачать бесплатно Легенда о Джонни Линго
    Легенда о Джонни Линго скачать торрент
    Легенда о Джонни Линго смотреть онлайн
    Cкачать фильм Легенда о Джонни Линго бесплатно
    Легенда о Джонни Линго скачать торрент в хорошем качестве
    Легенда о Джонни Линго смотреть онлайн бесплатно в хорошем качестве


    Вы не можете начинать темы
    Вы не можете отвечать на сообщения
    Вы не можете редактировать свои сообщения
    Вы не можете удалять свои сообщения
    Вы не можете голосовать в опросах
    Вы не можете прикреплять файлы к сообщениям
    Вы можете скачивать файлы