Ссылка на приватное зеркало нашего сайта всего за 1$. Внимание количество ограничено!!!

2 сезон

iTunes

1 сезон

1

2 сезон

2 сезон

iTunes

1 сезон

RePack

30

Ultimate

ВАЖНО

ИГРА 18+

pack

RePack

MK11
pack

Забери бонус

RePack

jed

!!Акция!!

Alien_Rage

RePack

fifa19

RePack

Assassins Creed: Odyssey

RePack

NEED FOR SPEED™ PAYBACK

4 сезон

9 сезон

Бесстыжие 9 сезон

Все сериалы

все сериалы на PB.wtf

RePack

FAR CRY 5
  

Secret Sphere - The Nature Of Time (Japanese Edition) - 2017/ FLAC/ image +.cue/ lossless/ Melodic Power Metal pb.wtf

Secret Sphere - The Nature Of Time через торрент pb.wtf

Размер: 484 MB | Добавлен: 2 года 8 мес. назад | Торрент скачан:19 раз
Скачать  

24-02-2018 13:46 Secret Sphere - The Nature Of Time Скачать торрент  


Secret Sphere - The Nature Of Time (Japanese Edition)


Год издания: 2017
Страна: Italy
Жанр: Melodic Power Metal
Продолжительность: 01:00:21
Лейбл издания: King Records Co.
Страна-выпуска диска: Japan
Номер по каталогу: KICP 1853
Формат: FLAC
Битрейт аудио: Lossless
Тип рипа: image +.cue
Наличие сканов в содержимом раздачи: да


01. Intermission (1:40)
02. The Calling (5:14)
03. Love (4:13)
04. Courage (5:39)
05. Kindness (5:14)
06. Honesty (5:12)
07. Faith (4:49)
08. Reliance (6:06)
09. Commitment (3:33)
10. The Awakening (8:58)
11. The New Beginning (5:17)
12. Kindness (Orchestral Version) (Bonus Track) (4:26)

Код:

Exact Audio Copy V1.3 from 2. September 2016

EAC extraction logfile from 15. July 2017, 0:19

Secret Sphere / The Nature Of Time (Japan)

Used drive  : MATSHITADVD-RAM UJ8G6   Adapter: 1  ID: 0

Read mode               : Secure
Utilize accurate stream : Yes
Defeat audio cache      : Yes
Make use of C2 pointers : No

Read offset correction                      : 103
Overread into Lead-In and Lead-Out          : No
Fill up missing offset samples with silence : Yes
Delete leading and trailing silent blocks   : No
Null samples used in CRC calculations       : Yes
Used interface                              : Native Win32 interface for Win NT & 2000

Used output format              : User Defined Encoder
Selected bitrate                : 1024 kBit/s
Quality                         : High
Add ID3 tag                     : No
Command line compressor         : C:\Program Files (x86)\Exact Audio Copy\FLAC\FLAC.EXE
Additional command line options : -V -8 -T "Date=%year%" -T"Genre=%genre%" -T"COMMENT=Ripped by Ilijan - ilko" -8 -V %source%

TOC of the extracted CD

     Track |   Start  |  Length  | Start sector | End sector
    ---------------------------------------------------------
        1  |  0:00.00 |  1:39.41 |         0    |     7465
        2  |  1:39.41 |  5:14.35 |      7466    |    31050
        3  |  6:54.01 |  4:13.24 |     31051    |    50049
        4  | 11:07.25 |  5:39.12 |     50050    |    75486
        5  | 16:46.37 |  5:13.62 |     75487    |    99023
        6  | 22:00.24 |  5:11.57 |     99024    |   122405
        7  | 27:12.06 |  4:49.19 |    122406    |   144099
        8  | 32:01.25 |  6:05.39 |    144100    |   171513
        9  | 38:06.64 |  3:32.71 |    171514    |   187484
       10  | 41:39.60 |  8:57.45 |    187485    |   227804
       11  | 50:37.30 |  5:16.72 |    227805    |   251576
       12  | 55:54.27 |  4:26.20 |    251577    |   271546

Range status and errors

Selected range

     Filename D:\ilko\Secret Sphere - The Nature Of Time (Japan).wav

     Peak level 99.9 %
     Extraction speed 4.1 X
     Range quality 100.0 %
     Test CRC 4561FD9F
     Copy CRC 4561FD9F
     Copy OK

No errors occurred

AccurateRip summary

Track  1  not present in database
Track  2  not present in database
Track  3  not present in database
Track  4  not present in database
Track  5  not present in database
Track  6  not present in database
Track  7  not present in database
Track  8  not present in database
Track  9  not present in database
Track 10  not present in database
Track 11  not present in database
Track 12  not present in database

None of the tracks are present in the AccurateRip database

End of status report

Код:

REM GENRE "Melodic Power Metal"
REM DATE 2017
REM DISCID 8E0E240C
REM COMMENT "ExactAudioCopy v1.3"
PERFORMER "Secret Sphere"
TITLE "The Nature Of Time (Japan)"
FILE "Secret Sphere - The Nature Of Time (Japan).flac" WAVE
  TRACK 01 AUDIO
    TITLE "Intermission"
    PERFORMER "Secret Sphere"
    INDEX 01 00:00:00
  TRACK 02 AUDIO
    TITLE "The Calling"
    PERFORMER "Secret Sphere"
    INDEX 01 01:39:41
  TRACK 03 AUDIO
    TITLE "Love"
    PERFORMER "Secret Sphere"
    INDEX 01 06:54:01
  TRACK 04 AUDIO
    TITLE "Courage"
    PERFORMER "Secret Sphere"
    INDEX 01 11:07:25
  TRACK 05 AUDIO
    TITLE "Kindness"
    PERFORMER "Secret Sphere"
    INDEX 01 16:46:37
  TRACK 06 AUDIO
    TITLE "Honesty"
    PERFORMER "Secret Sphere"
    INDEX 01 22:00:24
  TRACK 07 AUDIO
    TITLE "Faith"
    PERFORMER "Secret Sphere"
    INDEX 01 27:12:06
  TRACK 08 AUDIO
    TITLE "Reliance"
    PERFORMER "Secret Sphere"
    INDEX 01 32:01:25
  TRACK 09 AUDIO
    TITLE "Commitment"
    PERFORMER "Secret Sphere"
    INDEX 01 38:06:64
  TRACK 10 AUDIO
    TITLE "The Awakening"
    PERFORMER "Secret Sphere"
    INDEX 01 41:39:60
  TRACK 11 AUDIO
    TITLE "The New Beginning"
    PERFORMER "Secret Sphere"
    INDEX 01 50:37:30
  TRACK 12 AUDIO
    TITLE "Kindness (Orchestral Version) (Bonus Track)"
    PERFORMER "Secret Sphere"
    INDEX 01 55:54:27





pb.wtf



Скачать Secret Sphere - The Nature Of Time через торрент http://i102.fastpic.ru/big/2018/0224/52/b37e5fe78fe6e8a201d28a64cd05c752.png Скачать фильм Secret Sphere - The Nature Of Time через торрент бесплантно в хорошем качестве Трэклист Intermission (1:40) The Calling (5:14) Love (4:13) Courage (5:39) Kindness (5:14) Honesty ... 10 10 1
Торрент: Зарегистрирован [2018-02-24 13:46] · скачан: 19 раз
Статус: √ проверено
Размер: 484 MB
Как cкачать? Как скачать Secret Sphere - The Nature Of Time через торрент | qTorrent

28-11-2019 20:33  

Отключить всю рекламу на сайте

    Дорогой пользователь! Огромная просьба, поблагодарите релизера, оцените раздачу и оставьте свои комментарий, если Вы скачали Secret Sphere - The Nature Of Time через торрент бесплатно! Внесите свою лепту в развитие PiratBit!
    Комментировать посты могут только пользователи прошедшие не сложную регистрацию
    Показать сообщения:    

    Secret Sphere - The Nature Of Time через торрент
    Скачать бесплатно Secret Sphere - The Nature Of Time
    Secret Sphere - The Nature Of Time скачать торрент
    Secret Sphere - The Nature Of Time смотреть онлайн
    Cкачать фильм Secret Sphere - The Nature Of Time бесплатно
    Secret Sphere - The Nature Of Time скачать торрент в хорошем качестве
    Secret Sphere - The Nature Of Time смотреть онлайн бесплатно в хорошем качестве


    Вы не можете начинать темы
    Вы не можете отвечать на сообщения
    Вы не можете редактировать свои сообщения
    Вы не можете удалять свои сообщения
    Вы не можете голосовать в опросах
    Вы не можете прикреплять файлы к сообщениям
    Вы можете скачивать файлы