Ссылка на приватное зеркало нашего сайта всего за 1$. Внимание количество ограничено!!!

2 сезон

iTunes

1 сезон

1

2 сезон

2 сезон

iTunes

1 сезон

RePack

30

Ultimate

ВАЖНО

ИГРА 18+

pack

RePack

MK11
pack

Забери бонус

RePack

jed

!!Акция!!

Alien_Rage

RePack

fifa19

RePack

Assassins Creed: Odyssey

RePack

NEED FOR SPEED™ PAYBACK

4 сезон

9 сезон

Бесстыжие 9 сезон

Все сериалы

все сериалы на PB.wtf

RePack

FAR CRY 5
  

Dawn of Silence - Wicked Saint Or Righteous Sinner (Japanese Edition) - 2010/ FLAC/ image +.cue/ lossless/ Melodic Power Metal pb.wtf

Dawn of Silence - Wicked Saint Or Righteous Sinner через торрент pb.wtf

Размер: 463 MB | Добавлен: 2 года 9 мес. назад | Торрент скачан:21 раз
Скачать  

24-02-2018 13:48 Dawn of Silence - Wicked Saint Or Righteous Sinner Скачать торрент  


Dawn of Silence - Wicked Saint Or Righteous Sinner (Japanese Edition)


Год издания: 2010
Страна: Sweden
Жанр: Melodic Power Metal
Продолжительность: 00:52:52
Лейбл издания: Spiritual Beast Co., Ltd.
Страна-выпуска диска: Japan
Номер по каталогу: IUCP-16081
Формат: FLAC
Битрейт аудио: Lossless
Тип рипа: image +.cue
Наличие сканов в содержимом раздачи: да


01. Chasing A Ghost (3:59)
02. Escape The Night (4:05)
03. Release Me (From Myself) (4:07)
04. In Quest For Life (5:31)
05. Cage Of Fear (3:48)
06. Crucifire (3:09)
07. Away From Heaven (5:08)
08. Haunted Dreams (3:57)
09. Shadow Of Guilt (4:43)
10. Masquerade (5:35)
11. Sea Of Fire (Bonus Track) (4:52)
12. I'm Not Your Hero (Bonus Track) (3:58)

Код:

Exact Audio Copy V1.0 beta 3 from 29. August 2011

EAC extraction logfile from 9. February 2015, 11:40

Dawn of Silence / Wicked Saint or Righteous Sinner

Used drive  : ATAPI   iHAS122   W   Adapter: 2  ID: 0

Read mode               : Secure
Utilize accurate stream : Yes
Defeat audio cache      : Yes
Make use of C2 pointers : No

Read offset correction                      : 48
Overread into Lead-In and Lead-Out          : No
Fill up missing offset samples with silence : Yes
Delete leading and trailing silent blocks   : No
Null samples used in CRC calculations       : Yes
Used interface                              : Installed external ASPI interface

Used output format              : User Defined Encoder
Selected bitrate                : 1024 kBit/s
Quality                         : High
Add ID3 tag                     : No
Command line compressor         : C:\Program Files\FLAC\flac.exe
Additional command line options : -V -8 -T "Date=%year%" -T "Genre=%genre%" -T"COMMENT=Ripped by  Ilijan" -8 -V %source%

TOC of the extracted CD

     Track |   Start  |  Length  | Start sector | End sector
    ---------------------------------------------------------
        1  |  0:00.00 |  3:59.04 |         0    |    17928
        2  |  3:59.04 |  4:05.08 |     17929    |    36311
        3  |  8:04.12 |  4:06.71 |     36312    |    54832
        4  | 12:11.08 |  5:30.51 |     54833    |    79633
        5  | 17:41.59 |  3:48.36 |     79634    |    96769
        6  | 21:30.20 |  3:08.73 |     96770    |   110942
        7  | 24:39.18 |  5:08.00 |    110943    |   134042
        8  | 29:47.18 |  3:56.65 |    134043    |   151807
        9  | 33:44.08 |  4:42.60 |    151808    |   173017
       10  | 38:26.68 |  5:34.66 |    173018    |   198133
       11  | 44:01.59 |  4:51.71 |    198134    |   220029
       12  | 48:53.55 |  3:58.00 |    220030    |   237879

Range status and errors

Selected range

     Filename D:\ИЛИЯН\Dawn of Silence - Wicked Saint or Righteous Sinner.wav

     Peak level 97.9 %
     Extraction speed 4.0 X
     Range quality 100.0 %
     Test CRC 8BF8D4B7
     Copy CRC 8BF8D4B7
     Copy OK

No errors occurred

AccurateRip summary

Track  1  not present in database
Track  2  not present in database
Track  3  not present in database
Track  4  not present in database
Track  5  not present in database
Track  6  not present in database
Track  7  not present in database
Track  8  not present in database
Track  9  not present in database
Track 10  not present in database
Track 11  not present in database
Track 12  not present in database

None of the tracks are present in the AccurateRip database

End of status report

Код:

REM GENRE "Power Metal"
REM DATE 2010
REM DISCID A00C630C
REM COMMENT "ExactAudioCopy v1.0b3"
PERFORMER "Dawn of Silence"
TITLE "Wicked Saint or Righteous Sinner"
FILE "Dawn of Silence - Wicked Saint or Righteous Sinner.flac" WAVE
  TRACK 01 AUDIO
    TITLE "Chasing A Ghost"
    PERFORMER "Dawn of Silence"
    INDEX 01 00:00:00
  TRACK 02 AUDIO
    TITLE "Escape The Night"
    PERFORMER "Dawn of Silence"
    INDEX 01 03:59:04
  TRACK 03 AUDIO
    TITLE "Release Me (From Myself)"
    PERFORMER "Dawn of Silence"
    INDEX 01 08:04:12
  TRACK 04 AUDIO
    TITLE "In Quest For Life"
    PERFORMER "Dawn of Silence"
    INDEX 01 12:11:08
  TRACK 05 AUDIO
    TITLE "Cage Of Fear"
    PERFORMER "Dawn of Silence"
    INDEX 01 17:41:59
  TRACK 06 AUDIO
    TITLE "Crucifire"
    PERFORMER "Dawn of Silence"
    INDEX 01 21:30:20
  TRACK 07 AUDIO
    TITLE "Away From Heaven"
    PERFORMER "Dawn of Silence"
    INDEX 01 24:39:18
  TRACK 08 AUDIO
    TITLE "Haunted Dreams"
    PERFORMER "Dawn of Silence"
    INDEX 01 29:47:18
  TRACK 09 AUDIO
    TITLE "Shadow Of Guilt"
    PERFORMER "Dawn of Silence"
    INDEX 01 33:44:08
  TRACK 10 AUDIO
    TITLE "Masquerade"
    PERFORMER "Dawn of Silence"
    INDEX 01 38:26:68
  TRACK 11 AUDIO
    TITLE "Sea Of Fire (Bonus Track)"
    PERFORMER "Dawn of Silence"
    INDEX 00 43:59:59
    INDEX 01 44:01:59
  TRACK 12 AUDIO
    TITLE "I'm Not Your Hero (Bonus Track)"
    PERFORMER "Dawn of Silence"
    INDEX 01 48:53:55




pb.wtf



Скачать Dawn of Silence - Wicked Saint Or Righteous Sinner через торрент http://i103.fastpic.ru/big/2018/0224/59/1a10e3ccc81443e9bb92f01c402b3759.png Скачать фильм Dawn of Silence - Wicked Saint Or Righteous Sinner через торрент бесплантно в хорошем качестве Трэклист Chasing A Ghost (3:59) Escape The Night (4:05) Release Me (From Myself) (4:07) In Quest For Life (5:31) ... 10 10 1
Торрент: Зарегистрирован [2018-02-24 13:48] · скачан: 21 раз
Статус: √ проверено
Размер: 463 MB
Как cкачать? Как скачать Dawn of Silence - Wicked Saint Or Righteous Sinner через торрент | qTorrent

28-11-2019 20:33  

Отключить всю рекламу на сайте

    Дорогой пользователь! Огромная просьба, поблагодарите релизера, оцените раздачу и оставьте свои комментарий, если Вы скачали Dawn of Silence - Wicked Saint Or Righteous Sinner через торрент бесплатно! Внесите свою лепту в развитие PiratBit!
    Комментировать посты могут только пользователи прошедшие не сложную регистрацию
    Показать сообщения:    

    Dawn of Silence - Wicked Saint Or Righteous Sinner через торрент
    Скачать бесплатно Dawn of Silence - Wicked Saint Or Righteous Sinner
    Dawn of Silence - Wicked Saint Or Righteous Sinner скачать торрент
    Dawn of Silence - Wicked Saint Or Righteous Sinner смотреть онлайн
    Cкачать фильм Dawn of Silence - Wicked Saint Or Righteous Sinner бесплатно
    Dawn of Silence - Wicked Saint Or Righteous Sinner скачать торрент в хорошем качестве
    Dawn of Silence - Wicked Saint Or Righteous Sinner смотреть онлайн бесплатно в хорошем качестве


    Вы не можете начинать темы
    Вы не можете отвечать на сообщения
    Вы не можете редактировать свои сообщения
    Вы не можете удалять свои сообщения
    Вы не можете голосовать в опросах
    Вы не можете прикреплять файлы к сообщениям
    Вы можете скачивать файлы