Ссылка на приватное зеркало всего за 1$. Внимание количество ограничено!!!

iTunes

iTunes

iTunes

1

iTunes

iTunes

iTunes

WEBRip

iTunes

30
pack

$ от Little Big

ВАЖНО

!!Акция!!

Alien_RageХит недели

RePack

Resident Evil 21

ИГРА 18+

pack

RePack

jed

!!Акция!!

Alien_Rage

RePack

fifa19

RePack

Assassins Creed: Odyssey

RePack

NEED FOR SPEED™ PAYBACK

4 сезон

9 сезон

Бесстыжие 9 сезон

Все сериалы

все сериалы на PB.wtf

RePack

FAR CRY 5
  

Кривизна / Curvature (Диего Халливис) [2017 г., Фантастика, драма, WEB-DLRip, Любительский (многоголосый) Синема УС] pb.wtf

Кривизна через торрент pb.wtf

Размер: 1.29 GB | Добавлен: 2 года 5 мес. назад | Торрент скачан:194 раза
Скачать  

25-02-2018 04:50 Кривизна Скачать торрент  

Кривизна / Curvature
Год выпуска: 2017
Страна: США / 1inMM Productions
Жанр: Фантастика, драма
Продолжительность: 01:28:26
Перевод: Любительский (многоголосый)Синема УС
Субтитры: Отсутствуют

Режиссер: Диего Халливис

Премьера в мире: 8 октября 2017

rating

В ролях: Линдси Фонсека, Линда Хэмилтон, Гленн Моршауэр, Ной Бин, Алекс Лани, Зак Эйвери, Уилльям Уиллет, Уилльям Кросс

Описание: Хелен - талантливый инженер, что тяжело переживает самоубийство своего мужа. Однажды она узнает нечто такое, из-за чего ей приходится убить человека. Горячо сожалея о содеянном, она отправляется в прошлое, чтобы повернуть историю вспять.

Доп. информация: Присутствуют вставки текстовой рекламы!

Качество: WEB-DLRip
Формат: AVI
Видео кодек: XviD
Аудио кодек: AC3
Видео: XviD, 720x304, 23.976 fps, 1 686 Kbps
Аудио#1: AC-3, 48.0 KHz, 2 ch, 384 Kbps
скриншот   скриншот   скриншот   скриншот   скриншот  

Общее
Полное имя : E:\NNM\Кривизна\Curvature 2017 WEB-DLRip.avi
Формат : AVI
Формат/Информация : Audio Video Interleave
Профиль формата : OpenDML
Размер файла : 1,29 Гбайт
Продолжительность : 1 ч. 28 м.
Общий поток : 2082 Кбит/сек

Видео
Идентификатор : 0
Формат : MPEG-4 Visual
Профиль формата : Advanced Simple@L5
Настройки формата : BVOP2 / Custom Matrix
Параметр BVOP формата : 2
Параметр QPel формата : Нет
Параметр GMC формата : Без точки перехода
Параметр матрицы формата : Выборочная
Идентификатор кодека : XVID
Идентификатор кодека/Подсказка : XviD
Продолжительность : 1 ч. 28 м.
Битрейт : 1686 Кбит/сек
Ширина : 720 пикселей
Высота : 304 пикселя
Соотношение сторон : 2,35:1
Частота кадров : 23,976 (24000/1001) кадра/сек
Цветовое пространство : YUV
Субдискретизация насыщенности : 4:2:0
Битовая глубина : 8 бит
Тип развёртки : Прогрессивная
Метод сжатия : С потерями
Бит/(Пиксели*Кадры) : 0.321
Размер потока : 1,04 Гбайт (81%)
Библиотека кодирования : XviD 1.2.1 (UTC 2008-12-04)

Аудио
Идентификатор : 1
Формат : AC-3
Формат/Информация : Audio Coding 3
Идентификатор кодека : 2000
Продолжительность : 1 ч. 28 м.
Вид битрейта : Постоянный
Битрейт : 384 Кбит/сек
Каналы : 2 канала
Расположение каналов : Front: L R
Частота : 48,0 КГц
Частота кадров : 31,250 кадров/сек (1536 SPF)
Битовая глубина : 16 бит
Метод сжатия : С потерями
Размер потока : 243 Мбайт (18%)
Выравнивание : Соединение по промежуткам
Продолжительность промежутка : 32 мс. (0,77 видеокадр)
ServiceKind/String : Complete Main

pb.wtf



Скачать Кривизна через торрент http://i102.fastpic.ru/big/2018/0225/13/e27ee515f4c8321d6bc551f7748ae913.jpg Скачать фильм Кривизна через торрент бесплантно в хорошем качестве Описание: Хелен - талантливый инженер, что тяжело переживает самоубийство своего мужа. Однажды она узнает нечто такое, из-за чего ей ... 5.5 10 4
Торрент: Зарегистрирован [2018-02-25 04:50] · скачан: 194 раз
Статус: T временная
Размер: 1.29 GB
Как cкачать? Как скачать Кривизна через торрент | qTorrent

28-11-2019 20:33  

Отключить всю рекламу на сайте

25-02-2018 15:54 Кривизна Скачать торрент  

Фильм про мои руки?pb.wtf



    Дорогой пользователь! Огромная просьба, поблагодарите релизера, оцените раздачу и оставьте свои комментарий, если Вы скачали Кривизна через торрент бесплатно! Внесите свою лепту в развитие PiratBit!
    Комментировать посты могут только пользователи прошедшие не сложную регистрацию
    Показать сообщения:    

    Кривизна через торрент
    Скачать бесплатно Кривизна
    Кривизна скачать торрент
    Кривизна смотреть онлайн
    Cкачать фильм Кривизна бесплатно
    Кривизна скачать торрент в хорошем качестве
    Кривизна смотреть онлайн бесплатно в хорошем качестве


    Вы не можете начинать темы
    Вы не можете отвечать на сообщения
    Вы не можете редактировать свои сообщения
    Вы не можете удалять свои сообщения
    Вы не можете голосовать в опросах
    Вы не можете прикреплять файлы к сообщениям
    Вы можете скачивать файлы