2 сезон

iTunes

1 сезон

1

iTunes

iTunes

iTunes

1 сезон

RePack

30

ИГРА 18+

pack

ВАЖНО

!!Акция!!

Alien_RageХит недели

RePack

MK11
pack

Забери бонус

RePack

jed

!!Акция!!

Alien_Rage

RePack

fifa19

RePack

Assassins Creed: Odyssey

RePack

NEED FOR SPEED™ PAYBACK

4 сезон

9 сезон

Бесстыжие 9 сезон

Все сериалы

все сериалы на PB.wtf

RePack

FAR CRY 5
  

Двойная ложь / Серии 1-4 из 4 (Сергей Лялин) [2018, Мелодрама, WEB-DLRip-AVC] pb.wtf

Двойная ложь через торрент pb.wtf

Размер: 2.26 GB | Добавлен: 2 года 8 мес. назад | Торрент скачан:121 раз
Скачать  

25-02-2018 06:17 Двойная ложь Скачать торрент  

Двойная ложьГод выпуска: 2018
Страна: Россия
Жанр: Мелодрама
Продолжительность: 2 x ~ 01:30:00 (два файла по 2 серии)
Субтитры: отсутствуют

Режиссер: Сергей Лялин

В ролях:

Анна Михайловская, Александр Дьяченко, Максим Житник, Полина Поликанова, Артём Федотов, Юлия Франц

Описание:

Тоня и Слава женаты уже несколько лет. Живут от зарплаты до зарплаты, но хотя бы есть собственное жилье – квартира, которая досталась Тоне в наследство от покойной матери. Слава сутками работает таксистом, но денег все равно не прибавляется. Тоня мечтает о ребенке, но муж уверяет ее, что сначала нужно *встать на ноги*. Однажды Слава поздно возвращается с ночной смены. На нем нет лица. Он рассказывает жене, что уснул за рулем и сбил на пешеходном переходе мужчину. Сейчас тот в коме. Славе грозит тюрьма...

Качество: WEB-DLRip-AVC
Формат: MKV
Видео кодек: H.264
Аудио кодек: AC3

Видео: MPEG-4 AVC, ~ 1600 Кбит/с, 1024x576, 25 кадр/с
Аудио: AC3, 2 ch, 192 Кбит/с
скриншот   скриншот   скриншот   скриншот  

Общее
Уникальный идентификатор : 195809595844541972904317135564065252276 (0x934F8E70765102F296815504BF60A3B4)
Полное имя : D:\Dvojnaya.lozh.(2017).WEB-DLRip.(AVC).Files-x\01.Dvojnaya.lozh.(2017).WEB-DLRip.(AVC).by.Серый1779.Files-x.mkv
Формат : Matroska
Версия формата : Version 2
Размер файла : 1,12 Гбайт
Продолжительность : 1 ч. 29 м.
Общий поток : 1794 Кбит/сек
Дата кодирования : UTC 2018-02-24 22:44:09
Программа кодирования : mkvmerge v7.8.0 ('River Man') 32bit built on Apr 3 2015 12:11:22
Библиотека кодирования : libebml v1.3.1 + libmatroska v1.4.2

Видео
Идентификатор : 1
Формат : AVC
Формат/Информация : Advanced Video Codec
Профиль формата : High@L4.1
Параметр CABAC формата : Да
Параметр ReFrames формата : 9 кадров
Идентификатор кодека : V_MPEG4/ISO/AVC
Продолжительность : 1 ч. 29 м.
Битрейт : 1600 Кбит/сек
Ширина : 1024 пикселя
Высота : 576 пикселей
Соотношение сторон : 16:9
Режим частоты кадров : Постоянный
Частота кадров : 25,000 кадров/сек
Цветовое пространство : YUV
Субдискретизация насыщенности : 4:2:0
Битовая глубина : 8 бит
Тип развёртки : Прогрессивная
Бит/(Пиксели*Кадры) : 0.109
Размер потока : 1001 Мбайт (87%)
Библиотека кодирования : x264 core 146 r2538 121396c
Настройки программы : cabac=1 / ref=9 / deblock=1:-2:-1 / analyse=0x3:0x133 / me=umh / subme=9 / psy=1 / psy_rd=1.00:0.15 / mixed_ref=1 / me_range=32 / chroma_me=1 / trellis=2 / 8x8dct=1 / cqm=0 / deadzone=21,11 / fast_pskip=0 / chroma_qp_offset=-3 / threads=18 / lookahead_threads=3 / sliced_threads=0 / nr=0 / decimate=1 / interlaced=0 / bluray_compat=0 / constrained_intra=0 / bframes=9 / b_pyramid=2 / b_adapt=2 / b_bias=0 / direct=1 / weightb=1 / open_gop=0 / weightp=2 / keyint=250 / keyint_min=25 / scenecut=40 / intra_refresh=0 / rc=2pass / mbtree=0 / bitrate=1600 / ratetol=1.0 / qcomp=0.60 / qpmin=0 / qpmax=69 / qpstep=4 / cplxblur=20.0 / qblur=0.5 / ip_ratio=1.40 / pb_ratio=1.30 / aq=2:1.00
Default : Да
Forced : Нет
Цветовой диапазон : Limited
Основные цвета : BT.709
Характеристики трансфера : BT.709
Коэффициенты матрицы : BT.709

Аудио
Идентификатор : 2
Формат : AC-3
Формат/Информация : Audio Coding 3
Расширение режима : CM (complete main)
Параметр Endianness формата : Big
Идентификатор кодека : A_AC3
Продолжительность : 1 ч. 29 м.
Вид битрейта : Постоянный
Битрейт : 192 Кбит/сек
Каналы : 2 канала
Расположение каналов : Front: L R
Частота : 44,1 КГц
Частота кадров : 28,711 кадров/сек (1536 spf)
Метод сжатия : С потерями
Размер потока : 123 Мбайт (11%)
Default : Да
Forced : Нет

pb.wtf



Скачать Двойная ложь через торрент http://i100.fastpic.ru/big/2018/0225/73/f41f4a595f9433ec08f44234cf48e373.jpg Скачать фильм Двойная ложь через торрент бесплантно в хорошем качестве Описание: Тоня и Слава женаты уже несколько лет. Живут от зарплаты до зарплаты, но хотя бы есть собственное жилье – квартира, которая ... 10 10 3
Торрент: Зарегистрирован [2018-02-25 06:17] · скачан: 121 раз
Статус: √ проверено
Размер: 2.26 GB
Как cкачать? Как скачать Двойная ложь через торрент | qTorrent

% Раздел Тема Автор DL S | L
Наши сериалы [ 2.11 GB ] Двойная ложь / Серии: 1-4 из 4 [2017 SATRip-AVC] aleksan55 Скачать
1 | 0
Наши сериалы [ 2.42 GB ] Двойная ложь / Серии 1-4 из 4 [2018 Мело SATRip] bober100 Скачать
1 | 0

28-11-2019 20:33  

Отключить всю рекламу на сайте

    Дорогой пользователь! Огромная просьба, поблагодарите релизера, оцените раздачу и оставьте свои комментарий, если Вы скачали Двойная ложь через торрент бесплатно! Внесите свою лепту в развитие PiratBit!
    Комментировать посты могут только пользователи прошедшие не сложную регистрацию
    Показать сообщения:    

    Двойная ложь через торрент
    Скачать бесплатно Двойная ложь
    Двойная ложь скачать торрент
    Двойная ложь смотреть онлайн
    Cкачать фильм Двойная ложь бесплатно
    Двойная ложь скачать торрент в хорошем качестве
    Двойная ложь смотреть онлайн бесплатно в хорошем качестве


    Вы не можете начинать темы
    Вы не можете отвечать на сообщения
    Вы не можете редактировать свои сообщения
    Вы не можете удалять свои сообщения
    Вы не можете голосовать в опросах
    Вы не можете прикреплять файлы к сообщениям
    Вы можете скачивать файлы