новый адрес пиратбит piratbit
Мега распродажа FORZA HORIZON 4 ULTIMATE+ВСЕ DLC+ОНЛАЙН всего за 499р. 349 руб. (супер цена). Внимание количество ограничено!!!

iTunes

1+1

iTunes

мы

iTunes

1

iTunes

Чернобыль

iTunes

Ральф против интернета

Лицензия

ПШазам

Лицензия

Игра престолов

Лицензия

30
pack

ВАЖНО

!!Акция!!

Alien_RageХит недели

RePack

Resident Evil 21

ИГРА 18+

pack

RePack

Metro:Exodus

!!Акция!!

Alien_Rage

RePack

fifa19

RePack

Assassins Creed: Odyssey

RePack

NEED FOR SPEED™ PAYBACK

3 сезон

9 сезон

Бесстыжие 9 сезон

Все сериалы

все сериалы на PB.wtf

RePack

FAR CRY 5
Ребята, катастрофически не хватает 1900р. для оплаты серверов за Октябрь (всвязи с блокировками трафик упал в 3 раза), 1-2р., выручайте.
  

Прощайте, голуби! (Яков Сегель) [1960, СССР, драма, мелодрама, SATRip от AVP Studio] pb.wtf

Прощайте, голуби! через торрент pb.wtf

Размер: 1.09 GB | Добавлен: 1 год 8 мес. назад | Торрент скачан:20 раз
Скачать  

25-02-2018 10:12 Прощайте, голуби! Скачать торрент  

Прощайте, голуби!
Страна: СССР
Производство: Ялтинская киностудия

Жанр: драма, мелодрама
Год выпуска: 1960
Продолжительность: 01:31:08

Перевод: Не требуется
Cубтитры: нет
Оригинальная аудиодорожка: русский

Режиссер: Яков Сегель

В ролях:
Алексей Локтев, Светлана Савёлова, Валентина Телегина, Сергей Плотников, Анна Николаева, Прасковья Постникова, Антонина Максимова, Александр Сумароков, Вера Предаевич, Леонид Галлис, Галина Игнатьева, Савелий Крамаров, Пётр Вескляров...
Об актёрах подробней

Описание:
Генка Сахненко (Алексей Локтев) жил в Киеве, учился в ремесленном училище, стал работать самостоятельно. Казалось, началась взрослая жизнь. Но возвращаясь домой, Генка по-прежнему лез на голубятню. Голуби - это было его увлечение, с которым он не мог расстаться. Работа нравилась Генке. Вот только не нравилось, что мастер Максим Петрович (Сергей Плотников), с которым он работал, брал с жильцов магарыч. Он даже задумал перехитрить Максима Петровича. Встал пораньше, взял все наряды и обошел квартиры один. Когда мастер вышел на работу, неисправности были уже устранены...

Исходник: DVB
Качество видео: SATRip
Формат видео: AVI

Видео: 672х496 (4:3), 25,000 кадров/сек, XviD ~ 1510 kbps avg, 0.181 bit/pixel
Аудио: 48 kHz, Dolby Digital AC3 2.0, 192 kbps

Раздача от:
Общее
Полное имя : Proshhayte,golubi!1960.SATRip_[New-team]_by_AVP_Studio.avi
Формат : AVI
Формат/Информация : Audio Video Interleave
Размер файла : 1,09 Гбайт
Продолжительность : 1 ч. 31 м.
Общий поток : 1711 Кбит/сек
Программа кодирования : VirtualDubMod 1.5.10.3 | www.virtualdub-fr.org || (build 2550/release)
Библиотека кодирования : VirtualDubMod build 2550/release

Видео
Идентификатор : 0
Формат : MPEG-4 Visual
Профиль формата : Advanced Simple@L5
Настройки формата : BVOP1 / Custom Matrix
Параметр BVOP формата : 1
Параметр QPel формата : Нет
Параметр GMC формата : Без точки перехода
Параметр матрицы формата : Выборочная
Идентификатор кодека : XVID
Идентификатор кодека/Подсказка : XviD
Продолжительность : 1 ч. 31 м.
Битрейт : 1510 Кбит/сек
Ширина : 672 пикселя
Высота : 496 пикселей
Соотношение сторон : 4:3
Частота кадров : 25,000 кадров/сек
Цветовое пространство : YUV
Субдискретизация насыщенности : 4:2:0
Битовая глубина : 8 бит
Тип развёртки : Прогрессивная
Метод сжатия : С потерями
Бит/(Пиксели*Кадры) : 0.181
Размер потока : 984 Мбайт (88%)
Библиотека кодирования : XviD 73

Аудио
Идентификатор : 1
Формат : AC-3
Формат/Информация : Audio Coding 3
Идентификатор кодека : 2000
Продолжительность : 1 ч. 31 м.
Вид битрейта : Постоянный
Битрейт : 192 Кбит/сек
Каналы : 2 канала
Расположение каналов : Front: L R
Частота : 48,0 КГц
Частота кадров : 31,250 кадров/сек (1536 SPF)
Битовая глубина : 16 бит
Метод сжатия : С потерями
Размер потока : 125 Мбайт (11%)
Выравнивание : Разделение по промежуткам
Продолжительность промежутка : 40 мс. (1,00 видеокадр)
Время предзагрузки промежутка : 500 мс
pb.wtf



Скачать Прощайте, голуби! через торрент http://i2.imageban.ru/out/2018/02/25/a353db8958814ccfe69e28d08799da1d.png Скачать фильм Прощайте, голуби! через торрент бесплантно в хорошем качестве Описание:Генка Сахненко (Алексей Локтев) жил в Киеве, учился в ремесленном училище, стал работать самостоятельно. Казалось, началась ... 5 10 1
Info! Золотая раздача, скачанное не засчитывается.
Торрент: Зарегистрирован [2018-02-25 10:12] · скачан: 20 раз
Статус: √ проверено
Размер: 1.09 GB
Как cкачать? Как скачать Прощайте, голуби! через торрент | qTorrent

% Раздел Тема Автор DL S | L
Кино СССР [ 1.09 GB ] Прощайте голуби! [1960 СССР SATRip-AVC от AVP Studio] AVP Studio Скачать
1 | 0


>> Регистрируемся здесь <<






Отзывы и комментарии о схеме читаем и пишем здесь: ---> Отзывы и комментарии о схеме

Новые благодарочки в телеграм довольных пользователей:
скриншот   скриншот   скриншот   скриншот   скриншот
    Дорогой пользователь! Огромная просьба, поблагодарите релизера, оцените раздачу и оставьте свои комментарий, если Вы скачали Прощайте, голуби! через торрент бесплатно! Внесите свою лепту в развитие PiratBit!
    Комментировать посты могут только пользователи прошедшие не сложную регистрацию
    Показать сообщения:    

    Прощайте, голуби! через торрент
    Скачать бесплатно Прощайте, голуби!
    Прощайте, голуби! скачать торрент
    Прощайте, голуби! смотреть онлайн
    Cкачать фильм Прощайте, голуби! бесплатно
    Прощайте, голуби! скачать торрент в хорошем качестве
    Прощайте, голуби! смотреть онлайн бесплатно в хорошем качестве


    Вы не можете начинать темы
    Вы не можете отвечать на сообщения
    Вы не можете редактировать свои сообщения
    Вы не можете удалять свои сообщения
    Вы не можете голосовать в опросах
    Вы не можете прикреплять файлы к сообщениям
    Вы можете скачивать файлы