Ссылка на приватное зеркало нашего сайта всего за 1$. Внимание количество ограничено!!!

2 сезон

iTunes

1 сезон

1

2 сезон

2 сезон

iTunes

1 сезон

RePack

30

Ultimate

ВАЖНО

ИГРА 18+

pack

RePack

MK11
pack

Забери бонус

RePack

jed

!!Акция!!

Alien_Rage

RePack

fifa19

RePack

Assassins Creed: Odyssey

RePack

NEED FOR SPEED™ PAYBACK

4 сезон

9 сезон

Бесстыжие 9 сезон

Все сериалы

все сериалы на PB.wtf

RePack

FAR CRY 5
  

Банши / Banshee / Сезон: 1 / Серии: 1-10 из 10 (Мигель Сапочник, Грег Яйтанс) [2013, драма, криминал, детектив, HDRip] MVO [Амедиа] pb.wtf

Банши через торрент pb.wtf

Размер: 4.07 GB | Добавлен: 2 года 9 мес. назад | Торрент скачан:258 раз
Скачать  

25-02-2018 11:10 Банши Скачать торрент  


Банши / Banshee
Год выпуска: 2013
Страна: США
Жанр: драма, криминал, детектив
Продолжительность: 10 x ~ 00:50:00
Перевод: Профессиональный многоголосый - Амедиа
Субтитры: отсутствуют

Режиссер: Мигель Сапочник, Грег Яйтанс

rating

В ролях:

Энтони Старр, Ивана Миличевич, Рас Блэквелл, Мэтт Сервитто, Триесте Келли Данн, Райанн Шэйн, Фрэнки Фэйзон, Деметриус Гросс, Мэттью Ройч, Хун Ли и др.

Описание:

Главный герой Banshee — бывший заключенный и профессиональный вор, который присваивает себе личность шерифа Банши (городка в Пенсильвании), где он продолжает нарушать закон, хотя ему не дают покоя гангстеры, которых он предал много лет назад.

Качество: HDRip
Формат: AVI
Видео кодек: XviD
Аудио кодек: MP3

Видео: 624x352 (1.77:1), 23.976 fps, XviD build 50 ~999 kbps avg, 0.19 bit/pixel
Аудио: 48 kHz, MPEG Layer 3, 2 ch, ~128.00 kbps avg



скриншот   скриншот   скриншот   скриншот   скриншот  

Общее
Полное имя : D:\Banshee\Banshee.S01E01.avi
Формат : AVI
Формат/Информация : Audio Video Interleave
Размер файла : 484 Мбайт
Продолжительность : 59 м. 33 с.
Общий поток : 1137 Кбит/сек
Программа кодирования : VirtualDubMod 1.5.10.2 (build 2540/release)
Библиотека кодирования : VirtualDubMod build 2540/release

Видео
Идентификатор : 0
Формат : MPEG-4 Visual
Профиль формата : Advanced Simple@L5
Параметр BVOP формата : 1
Параметр QPel формата : Нет
Параметр GMC формата : Без точки перехода
Параметр матрицы формата : Default (MPEG)
Идентификатор кодека : XVID
Идентификатор кодека/Подсказка : XviD
Продолжительность : 59 м. 33 с.
Битрейт : 1000 Кбит/сек
Ширина : 624 пикселя
Высота : 352 пикселя
Соотношение сторон : 16:9
Частота кадров : 23,976 (23976/1000) кадра/сек
Цветовое пространство : YUV
Субдискретизация насыщенности : 4:2:0
Битовая глубина : 8 бит
Тип развёртки : Прогрессивная
Метод сжатия : С потерями
Бит/(Пиксели*Кадры) : 0.190
Размер потока : 426 Мбайт (88%)
Библиотека кодирования : XviD 1.2.1 (UTC 2008-12-04)

Аудио
Идентификатор : 1
Формат : MPEG Audio
Версия формата : Version 1
Профиль формата : Layer 3
Идентификатор кодека : 55
Идентификатор кодека/Подсказка : MP3
Продолжительность : 59 м. 33 с.
Вид битрейта : Постоянный
Битрейт : 128 Кбит/сек
Каналы : 2 канала
Частота : 48,0 КГц
Метод сжатия : С потерями
Размер потока : 54,5 Мбайт (11%)
Выравнивание : Соединение по промежуткам
Продолжительность промежутка : 42 мс. (1,00 видеокадр)
Время предзагрузки промежутка : 504 мс.
Библиотека кодирования : LAME3.98r
Настройки программы : -m s -V 4 -q 2 -lowpass 17 -b 128

pb.wtf



Скачать Банши через торрент http://i60.fastpic.ru/big/2014/0223/8a/217119fdc46d1a77155d35424680db8a.png Скачать фильм Банши через торрент бесплантно в хорошем качестве Описание: Главный герой Banshee — бывший заключенный и вор, который присваивает себе личность шерифа Банши (городка в ... 10 10 13
Торрент: Зарегистрирован [2018-02-25 11:10] · скачан: 258 раз
Статус: √ проверено
Размер: 4.07 GB
Как cкачать? Как скачать Банши через торрент | qTorrent

% Раздел Тема Автор DL S | L
Зарубежные сериалы [ 41.82 GB ] Банши / Banshee / Сезон: 1-4 / Серии: 1-38 из 38 [2013 BDRip-HEVC 1080p HDTVRip-HEVC 1080p] MVO [Амедиа] bober100 Скачать
1 | 0
Зарубежные сериалы [ 9.81 GB ] Банши / Banshee / Сезон: 2 / Серии: 1-10 из 10 [2014 HDTVRip 720p] MVO Амедиа + Original Messa-fan Скачать
1 | 0
Зарубежные сериалы [ 6.03 GB ] Банши / Banshee / Сезон: 3 / Серии: 1-10 из 10 [2015 HDTVRip] MVO [Амедиа] bober100 Скачать
1 | 0
Зарубежные сериалы [ 6.68 GB ] Банши / Banshee / Сезон: 2 / Серии: 1-10 из 10 [2014 HDTVRip] MVO [студия Пифагор] bober100 Скачать
1 | 0
Зарубежные сериалы [ 7.64 GB ] Банши / Banshee / Сезон: 4 / Серии 1-2 из 8 [2016 HDTV 1080p] MVO Milеna Скачать
1 | 0
Зарубежные сериалы [ 26.61 GB ] Банши / Banshee / Сезон: 2 / Серии: 1-10 из 10 [2014 HDTV 1080i] MVO Амедиа + Original Messa-fan Скачать
1 | 0
Зарубежные сериалы [ 7.06 GB ] Банши / Banshee / Сезон: 2 / Серии: 1-10 из 10 [2014 HDTVRip многоголосый]+Original Cталин Скачать
1 | 0

28-11-2019 20:33  

Отключить всю рекламу на сайте

    Дорогой пользователь! Огромная просьба, поблагодарите релизера, оцените раздачу и оставьте свои комментарий, если Вы скачали Банши через торрент бесплатно! Внесите свою лепту в развитие PiratBit!
    Комментировать посты могут только пользователи прошедшие не сложную регистрацию
    Показать сообщения:    

    Банши через торрент
    Скачать бесплатно Банши
    Банши скачать торрент
    Банши смотреть онлайн
    Cкачать фильм Банши бесплатно
    Банши скачать торрент в хорошем качестве
    Банши смотреть онлайн бесплатно в хорошем качестве


    Вы не можете начинать темы
    Вы не можете отвечать на сообщения
    Вы не можете редактировать свои сообщения
    Вы не можете удалять свои сообщения
    Вы не можете голосовать в опросах
    Вы не можете прикреплять файлы к сообщениям
    Вы можете скачивать файлы