Ссылка на приватное зеркало нашего сайта всего за 1$. Внимание количество ограничено!!!

2 сезон

iTunes

1 сезон

1

2 сезон

2 сезон

iTunes

1 сезон

RePack

30

Новинка

ВАЖНО

ИГРА 18+

pack

RePack

MK11
pack

Забери бонус

RePack

jed

!!Акция!!

Alien_Rage

RePack

fifa19

RePack

Assassins Creed: Odyssey

RePack

NEED FOR SPEED™ PAYBACK

4 сезон

9 сезон

Бесстыжие 9 сезон

Все сериалы

все сериалы на PB.wtf

RePack

FAR CRY 5
  

Эш против Зловещих мертвецов / Ash vs Evil Dead / Сезон: 3 / Серии: 1-10 из 10 (Майкл Херст, Рик Джейкобсон, Сэм Рэйми) [2018, Чёрная комедия, боевик, ужасы, WEBRip] [MVO] (GostFilm) pb.wtf

Эш против Зловещих мертвецов через торрент pb.wtf

Размер: 3.22 GB | Добавлен: 2 года 7 мес. назад | Торрент скачан:44 раза
Скачать  

25-02-2018 11:30 Эш против Зловещих мертвецов Скачать торрент  


Эш против Зловещих мертвецов | Ash vs Evil Dead


• Год выпуска: 2018
• Страна: США
• Жанр: ужасы, боевик, комедия
• Продолжительность: ~ 00:40:00
• Перевод: Любительский (многоголосый) GostFilm

• Режиссёр: Майкл Херст, Рик Джейкобсон, Сэм Рэйми

• В ролях: Брюс Кэмпбелл, Джилл Мари Джонс, Дэна ДеЛоренцо, Люси Лоулесс, Рэй Сантьяго, Мими Роджерс, Хемки Мадера, Фил Пелетон, Дэмиен Гарви

• Описание: 30 лет он избегал ответственности за свои поступки, упорно старался не взрослеть и не особо стремился вновь встретиться с ожившими мертвецами. Но, совершив ошибку, Эш узнает, что проказа кандарийских демонов угрожает распространиться по всей планете и ему снова приходится вступить в схватку с полчищами мертвой нечисти. Реки крови, горы трупов и, конечно, искрометный черный юмор – отличный подарок всем любителям ужасов, комедий, крови, треша и угара.



• Качество: WEBRip
• Формат: AVI
• Видео: 720x400, 25.000 fps, ~1405 kbps avg
• Аудио: MP3, 48 kHz, 2 ch, 320 kbps
General
Complete name : E:\Ash.vs.Evil.Dead.S03.400p.GostFilm\Ash.vs.Evil.Dead.S03E10.400p.GostFilm.avi
Format : AVI
Format/Info : Audio Video Interleave
File size : 383 MiB
Duration : 29 min 56 s
Overall bit rate : 1 789 kb/s
Writing application : Lavf57.71.100

Video
ID : 0
Format : MPEG-4 Visual
Format profile : Simple@L1
Format settings, BVOP : No
Format settings, QPel : No
Format settings, GMC : No warppoints
Format settings, Matrix : Default (H.263)
Codec ID : FMP4
Duration : 29 min 56 s
Bit rate : 1 389 kb/s
Width : 720 pixels
Height : 400 pixels
Display aspect ratio : 16:9
Frame rate : 25.000 FPS
Color space : YUV
Chroma subsampling : 4:2:0
Bit depth : 8 bits
Scan type : Progressive
Compression mode : Lossy
Bits/(Pixel*Frame) : 0.193
Stream size : 298 MiB (78%)
Writing library : Lavc57.89.100

Audio
ID : 1
Format : MPEG Audio
Format version : Version 1
Format profile : Layer 3
Format settings : Joint stereo
Mode : Joint stereo
Codec ID : 55
Codec ID/Hint : MP3
Duration : 29 min 56 s
Bit rate mode : Constant
Bit rate : 320 kb/s
Channel(s) : 2 channels
Sampling rate : 48.0 kHz
Compression mode : Lossy
Stream size : 68.5 MiB (18%)
Alignment : Aligned on interleaves
Writing library : LAME3.99.5
скриншот  скриншот  скриншот  
Когда раздача ведётся путём добавления новых серий, при каждом добавлении создётся новый торрент. Чтобы начать докачку новой серии, пользователям необходимо сделать следующее:
(1) остановить скачивание,
(2) удалить старый торрент у себя из клиента (старые серии удалять не надо),
(3) скачать новый торрент и запустить его у себя в клиенте вместо старого, при этом указать клиенту путь в старую папку, куда и должно происходить скачивание новых серий.
Ваш клиент при этом должен произвести хеширование (проверку) старой папки (если не производит сам - помогите ему сделать это), и будет докачивать только те серии, которых у вас ещё нет. Старые серии при этом не удаляются, а продолжают раздаваться!
Eсли вы уже удалили старые серии, то предотвратить повторную закачку старых серий можно, отжав галочку в соответсвующих местах при запуске нового торрента. По возможности, желательно не удалять старые серии как можно дольше, чтобы релизёр не столько продолжал раздавать старые серии, а смог сконцентрироваться на новых.
pb.wtf



Скачать Эш против Зловещих мертвецов через торрент http://i82.fastpic.ru/big/2016/0928/16/88d40f1fb9b46c462ac99bea7a68d016.png Скачать фильм Эш против Зловещих мертвецов через торрент бесплантно в хорошем качестве Описание: 30 лет он избегал ответственности за свои поступки, упорно старался не взрослеть и не особо стремился вновь встретиться с ... 10 10 4
Торрент: Зарегистрирован [2018-04-29 18:00] · скачан: 44 раз
Статус: √ проверено
Размер: 3.22 GB
Как cкачать? Как скачать Эш против Зловещих мертвецов через торрент | qTorrent

% Раздел Тема Автор DL S | L
Зарубежные сериалы [ 20.65 GB ] Эш против Зловещих мертвецов / Ash vs Evil Dead / Сезон 3 / Серии 1-10 из 10 [2018 WEB-DL 1080p] [MVO] [AlexFilm] killermax2013 Скачать
1 | 0
Зарубежные сериалы [ 5.43 GB ] Эш против Зловещих мертвецов / Ash vs Evil Dead / Сезон 3 / Серии 1-7 из 10 [2018 WEB-DL 720p] [DVO] killermax2013 Скачать
1 | 0
Зарубежные сериалы [ 8.42 GB ] Эш против Зловещих мертвецов / Ash vs Evil Dead / Сезон: 3 / Серии: 1-10 из 10 [2018 WEB-DL 720p] MVO [NewStudio] bober100 Скачать
1 | 0
Зарубежные сериалы [ 21.64 GB ] Эш против Зловещих мертвецов / Ash vs Evil Dead / Сезон: 3 / Серии: 1-10 из 10 [2018 WEB-DL 1080p] MVO [NewStudio] bober100 Скачать
1 | 0
Зарубежные сериалы [ 7.75 GB ] Эш против Зловещих мертвецов / Ash vs Evil Dead / Сезон 3 / Серии 1-10 из 10 [2018 WEB-DL 720p] [MVO] [AlexFilm] killermax2013 Скачать
1 | 0
Зарубежные сериалы [ 8.62 GB ] Эш против Зловещих мертвецов / Ash vs Evil Dead / Сезон: 3 / Серии 1-10 из 10 [2018 WEBRip 720p] MVO [BaibaKo] GEKADOL Скачать
1 | 0
Зарубежные сериалы [ 2.83 GB ] Эш против Зловещих мертвецов / Ash vs Evil Dead / Сезон: 3 / Серии: 1-10 из 10 [2018 WEB-DLRip] MVO [NewStudio] bober100 Скачать
1 | 0


Последний раз редактировалось: killermax2013 (2018-04-29 18:01), всего редактировалось 2 раз(а)

28-11-2019 20:33  

Отключить всю рекламу на сайте

19-03-2018 10:14 Эш против Зловещих мертвецов Скачать торрент  

pb.wtf



    Дорогой пользователь! Огромная просьба, поблагодарите релизера, оцените раздачу и оставьте свои комментарий, если Вы скачали Эш против Зловещих мертвецов через торрент бесплатно! Внесите свою лепту в развитие PiratBit!
    Комментировать посты могут только пользователи прошедшие не сложную регистрацию
    Показать сообщения:    

    Эш против Зловещих мертвецов через торрент
    Скачать бесплатно Эш против Зловещих мертвецов
    Эш против Зловещих мертвецов скачать торрент
    Эш против Зловещих мертвецов смотреть онлайн
    Cкачать фильм Эш против Зловещих мертвецов бесплатно
    Эш против Зловещих мертвецов скачать торрент в хорошем качестве
    Эш против Зловещих мертвецов смотреть онлайн бесплатно в хорошем качестве


    Вы не можете начинать темы
    Вы не можете отвечать на сообщения
    Вы не можете редактировать свои сообщения
    Вы не можете удалять свои сообщения
    Вы не можете голосовать в опросах
    Вы не можете прикреплять файлы к сообщениям
    Вы можете скачивать файлы