Ссылка на приватное зеркало нашего сайта всего за 1$. Внимание количество ограничено!!!

2 сезон

iTunes

1 сезон

1

2 сезон

2 сезон

iTunes

1 сезон

RePack

30

Ultimate

ВАЖНО

ИГРА 18+

pack

RePack

MK11
pack

Забери бонус

RePack

jed

!!Акция!!

Alien_Rage

RePack

fifa19

RePack

Assassins Creed: Odyssey

RePack

NEED FOR SPEED™ PAYBACK

4 сезон

9 сезон

Бесстыжие 9 сезон

Все сериалы

все сериалы на PB.wtf

RePack

FAR CRY 5
  

Банши / Banshee / Сезон: 2 / Серии: 1-10 из 10 (Грег Яйтанс, Оле Кристиан Мадсен, С.Дж. Кларксон) [2014, боевик, триллер, драма, криминал, детектив, HDTVRip] MVO [студия Пифагор] pb.wtf

Банши через торрент pb.wtf

Раздают: 1 [ 0 KB/s ]
Размер: 6.68 GB | Добавлен: 2 года 8 мес. назад | Торрент скачан:131 раз
Скачать  

25-02-2018 13:53 Банши Скачать торрент  


Банши / Banshee
Год выпуска: 2014
Страна: США
Жанр: боевик, триллер, драма, криминал, детектив
Продолжительность: 10х~ 00:50:00
Перевод: Профессиональный (многоголосый, закадровый) - студия Пифагор
Субтитры: отсутствуют

Режиссер: Грег Яйтанс, Оле Кристиан Мадсен, С.Дж. Кларксон

rating

В ролях:

Триесте Келли Данн, Мэтт Сервитто, Энтони Старр, Рас Блэквелл, Ивана Миличевич, Райанн Шэйн, Фрэнки Фэйзон, Деметриус Гросс, Мэттью Ройч, Хун Ли, Ульрих Томсен, Кристофер Козорт, Дерек Сесил, Стив Култер, Джозеф Майсснер

Описание:

Главный герой Banshee — бывший заключенный и профессиональный вор, который присваивает себе личность шерифа Банши (городка в Пенсильвании), где он продолжает нарушать закон, хотя ему не дают покоя гангстеры, которых он предал много лет назад.

Качество: HDTVRip
Формат: AVI
Видео кодек: XviD
Аудио кодек: MP3

Видео: XviD, ~ 1274 Кбит/с, 720x400
Аудио#1: Русский (MP3, 2 ch, 128 Кбит/с)
Аудио#2: английский (MP3, 2 ch, 128 Кбит/с)




Общее
Полное имя : D:\Banshee.S02.HDTVRip.SCTeam\Banshee.S02E01.HDTVRip.SCTeam.avi
Формат : AVI
Формат/Информация : Audio Video Interleave
Размер файла : 549 Мбайт
Продолжительность : 49 м. 41 с.
Общий поток : 1545 Кбит/сек
Программа кодирования : VirtualDubMod 1.5.10.2 (build 2540/release)
Библиотека кодирования : VirtualDubMod build 2540/release

Видео
Идентификатор : 0
Формат : MPEG-4 Visual
Профиль формата : Advanced Simple@L5
Параметр BVOP формата : 2
Параметр QPel формата : Нет
Параметр GMC формата : Без точки перехода
Параметр матрицы формата : Default (MPEG)
Идентификатор кодека : XVID
Идентификатор кодека/Подсказка : XviD
Продолжительность : 49 м. 41 с.
Битрейт : 1275 Кбит/сек
Ширина : 720 пикселей
Высота : 400 пикселей
Соотношение сторон : 16:9
Частота кадров : 23,976 (23976/1000) кадра/сек
Цветовое пространство : YUV
Субдискретизация насыщенности : 4:2:0
Битовая глубина : 8 бит
Тип развёртки : Прогрессивная
Метод сжатия : С потерями
Бит/(Пиксели*Кадры) : 0.185
Размер потока : 453 Мбайт (83%)
Библиотека кодирования : XviD 64

Аудио #1
Идентификатор : 1
Формат : MPEG Audio
Версия формата : Version 1
Профиль формата : Layer 3
Режим : Joint stereo
Расширение режима : MS Stereo
Идентификатор кодека : 55
Идентификатор кодека/Подсказка : MP3
Продолжительность : 49 м. 41 с.
Вид битрейта : Постоянный
Битрейт : 128 Кбит/сек
Каналы : 2 канала
Частота : 48,0 КГц
Метод сжатия : С потерями
Размер потока : 45,5 Мбайт (8%)
Выравнивание : Соединение по промежуткам
Продолжительность промежутка : 42 мс. (1,00 видеокадр)
Время предзагрузки промежутка : 504 мс.

Аудио #2
Идентификатор : 2
Формат : MPEG Audio
Версия формата : Version 1
Профиль формата : Layer 3
Режим : Joint stereo
Расширение режима : MS Stereo
Идентификатор кодека : 55
Идентификатор кодека/Подсказка : MP3
Продолжительность : 49 м. 41 с.
Вид битрейта : Постоянный
Битрейт : 128 Кбит/сек
Каналы : 2 канала
Частота : 48,0 КГц
Метод сжатия : С потерями
Размер потока : 45,5 Мбайт (8%)
Выравнивание : Соединение по промежуткам
Продолжительность промежутка : 42 мс. (1,00 видеокадр)
Время предзагрузки промежутка : 504 мс.

pb.wtf



Скачать Банши через торрент http://i60.fastpic.ru/big/2014/0223/8a/217119fdc46d1a77155d35424680db8a.png Скачать фильм Банши через торрент бесплантно в хорошем качестве Описание: Главный герой Banshee — бывший заключенный и вор, который присваивает себе личность шерифа Банши (городка в ... 8.7 10 7
Торрент: Зарегистрирован [2018-02-25 13:53] · скачан: 131 раз
Статус: √ проверено
Размер: 6.68 GB
Как cкачать? Как скачать Банши через торрент | qTorrent

% Раздел Тема Автор DL S | L
Зарубежные сериалы [ 9.81 GB ] Банши / Banshee / Сезон: 2 / Серии: 1-10 из 10 [2014 HDTVRip 720p] MVO Амедиа + Original Messa-fan Скачать
1 | 0
Зарубежные сериалы [ 7.64 GB ] Банши / Banshee / Сезон: 4 / Серии 1-2 из 8 [2016 HDTV 1080p] MVO Milеna Скачать
1 | 0
Зарубежные сериалы [ 26.61 GB ] Банши / Banshee / Сезон: 2 / Серии: 1-10 из 10 [2014 HDTV 1080i] MVO Амедиа + Original Messa-fan Скачать
1 | 0
Зарубежные сериалы [ 7.06 GB ] Банши / Banshee / Сезон: 2 / Серии: 1-10 из 10 [2014 HDTVRip многоголосый]+Original Cталин Скачать
1 | 0

28-11-2019 20:33  

Отключить всю рекламу на сайте

    Дорогой пользователь! Огромная просьба, поблагодарите релизера, оцените раздачу и оставьте свои комментарий, если Вы скачали Банши через торрент бесплатно! Внесите свою лепту в развитие PiratBit!
    Комментировать посты могут только пользователи прошедшие не сложную регистрацию
    Показать сообщения:    

    Банши через торрент
    Скачать бесплатно Банши
    Банши скачать торрент
    Банши смотреть онлайн
    Cкачать фильм Банши бесплатно
    Банши скачать торрент в хорошем качестве
    Банши смотреть онлайн бесплатно в хорошем качестве


    Вы не можете начинать темы
    Вы не можете отвечать на сообщения
    Вы не можете редактировать свои сообщения
    Вы не можете удалять свои сообщения
    Вы не можете голосовать в опросах
    Вы не можете прикреплять файлы к сообщениям
    Вы можете скачивать файлы