Ссылка на приватное зеркало нашего сайта всего за 1$. Внимание количество ограничено!!!

2 сезон

iTunes

1 сезон

1

iTunes

iTunes

iTunes

1 сезон

RePack

30

ИГРА 18+

pack

ВАЖНО

!!Акция!!

Alien_RageХит недели

RePack

MK11
pack

Забери бонус

RePack

jed

!!Акция!!

Alien_Rage

RePack

fifa19

RePack

Assassins Creed: Odyssey

RePack

NEED FOR SPEED™ PAYBACK

4 сезон

9 сезон

Бесстыжие 9 сезон

Все сериалы

все сериалы на PB.wtf

RePack

FAR CRY 5
  

Невский: Проверка на прочность / Сезон: 2 / Серии: 1-32 из 32 (Олег Ларин, Андрей Коршунов, Игорь Драка) [2017, Боевик, криминал, HDTVRip-AVC] pb.wtf

Невский: Проверка на прочность через торрент pb.wtf

Размер: 24.13 GB | Добавлен: 2 года 7 мес. назад | Торрент скачан:154 раза
Скачать  

25-02-2018 14:01 Невский: Проверка на прочность Скачать торрент  

Невский: Проверка на прочностьГод выпуска: 2017
Страна: Россия
Жанр: Боевик, криминал
Продолжительность: 32 х ~ 00:45:00
Перевод: Оригинал
Субтитры: отсутствуют

Режиссер: Олег Ларин, Андрей Коршунов, Игорь Драка



В ролях:

Антон Васильев (III), Андрей Гульнев, Сергей Кошонин, Дмитрий Паламарчук, Мария Капустинская, Александр Кудренко, Александр Саюталин, Николай Смирнов (V), Наталья Дворецкая, Юрий Архангельский, Николай Горшков, Антон Багров, Юрий Филиппов (II), Георгий Маришин, Виталий Горев, Андрей Перович, Андрей Шимко, Сергей Гарусов, Антон Успенский, Анастасия Аристова

Описание:

Капитан полиции Павел Семенов служит в одном из спальных районов Санкт-Петербурга. Павел привык разнимать пьяные драки и в одиночку входить в притоны наркоманов, чтобы провести очередной арест. Он знает, что если будет думать и рассуждать, его просто убьют. И привык сначала действовать, а потом разбираться, потому что очень хочет остаться в живых, ведь его дома ждут жена Юля и сын Саша… Рискуя жизнью, он спасает дочь бизнесмена. В благодарность Латышев, отец девочки, содействует переводу Павла на Невский проспект, в самый центр большого города, где служить престижно и выгодно… Но отношения в новом коллективе у Павла не складываются. Большинство коллег заняты вопросами личного обогащения, борьба с преступностью их интересует в последнюю очередь. И вскоре Павел начинает подозревать, что его перевод в Центральный район был осуществлен Латышевым с каким-то далеко идущими планами. А когда Павел выходит на след таинственного киллера по кличке Рафаэль, все окончательно запутывается. Но в трудной ситуации Павел всегда может положиться на своих друзей из спального района – бывшего напарника Кирилла Назарова и криминального авторитета Алексея Фомина...

Качество: HDTVRip-AVC
Формат: MKV

Видео: MPEG-4 AVC, ~ 2000 Кбит/с, 1024x576, 25 кадр/с
Аудио: AC3, 2 ch, 192 Кбит/с
скриншот   скриншот   скриншот   скриншот   скриншот   скриншот  

Общее
Уникальный идентификатор : 170666593585879893798548637574350546353 (0x806530B81D42C129853A19912670A5B1)
Полное имя : D:\Nevskij-2.(2017).HDTVRip.(AVC).Files-x\01.Nevskij-2.(2017).HDTVRip.AVC.by.Серый1779.Files-x.mkv
Формат : Matroska
Версия формата : Version 2
Размер файла : 795 Мбайт
Продолжительность : 50 м. 39 с.
Общий поток : 2194 Кбит/сек
Дата кодирования : UTC 2017-10-20 03:23:58
Программа кодирования : mkvmerge v7.8.0 ('River Man') 32bit built on Apr 3 2015 12:11:22
Библиотека кодирования : libebml v1.3.1 + libmatroska v1.4.2

Видео
Идентификатор : 1
Формат : AVC
Формат/Информация : Advanced Video Codec
Профиль формата : High@L4.1
Параметр CABAC формата : Да
Параметр ReFrames формата : 9 кадров
Идентификатор кодека : V_MPEG4/ISO/AVC
Продолжительность : 50 м. 39 с.
Битрейт : 2000 Кбит/сек
Ширина : 1024 пикселя
Высота : 576 пикселей
Соотношение сторон : 16:9
Режим частоты кадров : Постоянный
Частота кадров : 25,000 кадров/сек
Цветовое пространство : YUV
Субдискретизация насыщенности : 4:2:0
Битовая глубина : 8 бит
Тип развёртки : Прогрессивная
Бит/(Пиксели*Кадры) : 0.136
Размер потока : 709 Мбайт (89%)
Библиотека кодирования : x264 core 146 r2538 121396c
Настройки программы : cabac=1 / ref=9 / deblock=1:-2:-1 / analyse=0x3:0x113 / me=umh / subme=9 / psy=1 / psy_rd=1.00:0.15 / mixed_ref=1 / me_range=32 / chroma_me=1 / trellis=2 / 8x8dct=1 / cqm=0 / deadzone=21,11 / fast_pskip=0 / chroma_qp_offset=-3 / threads=18 / lookahead_threads=3 / sliced_threads=0 / nr=0 / decimate=1 / interlaced=0 / bluray_compat=0 / constrained_intra=0 / bframes=9 / b_pyramid=2 / b_adapt=2 / b_bias=0 / direct=1 / weightb=1 / open_gop=0 / weightp=2 / keyint=250 / keyint_min=25 / scenecut=40 / intra_refresh=0 / rc_lookahead=40 / rc=2pass / mbtree=0 / bitrate=2000 / ratetol=1.0 / qcomp=0.60 / qpmin=0 / qpmax=69 / qpstep=4 / cplxblur=20.0 / qblur=0.5 / vbv_maxrate=14000 / vbv_bufsize=14000 / nal_hrd=none / filler=0 / ip_ratio=1.40 / pb_ratio=1.30 / aq=2:1.00
Default : Да
Forced : Нет
Цветовой диапазон : Limited
Основные цвета : BT.709
Характеристики трансфера : BT.709
Коэффициенты матрицы : BT.709

Аудио
Идентификатор : 2
Формат : AC-3
Формат/Информация : Audio Coding 3
Расширение режима : CM (complete main)
Параметр Endianness формата : Big
Идентификатор кодека : A_AC3
Продолжительность : 50 м. 39 с.
Вид битрейта : Постоянный
Битрейт : 192 Кбит/сек
Каналы : 2 канала
Расположение каналов : Front: L R
Частота : 48,0 КГц
Частота кадров : 31,250 кадров/сек (1536 spf)
Метод сжатия : С потерями
Размер потока : 69,6 Мбайт (9%)
Default : Да
Forced : Нет

pb.wtf



Скачать Невский: Проверка на прочность через торрент http://i92.fastpic.ru/big/2017/1018/1e/b48ca665ba3ca467f2d7007c00ae1d1e.jpg Скачать фильм Невский: Проверка на прочность через торрент бесплантно в хорошем качестве Описание: Капитан полиции Павел Семенов служит в одном из спальных районов Санкт-Петербурга. Павел привык разнимать пьяные драки и в ... 9.7 10 11
Торрент: Зарегистрирован [2018-02-25 14:01] · скачан: 154 раз
Статус: √ проверено
Размер: 24.13 GB
Как cкачать? Как скачать Невский: Проверка на прочность через торрент | qTorrent

% Раздел Тема Автор DL S | L
Наши сериалы [ 20.1 GB ] Невский: Проверка на прочность / Сезон: 2 / Серии: 1-32 из 32 [2017 HDTVRip] bober100 Скачать
1 | 0
Наши сериалы [ 20.72 GB ] Невский: Проверка на прочность / Сезон: 2 / Серии: 1-32 из 32 [2017 SATRip] bober100 Скачать
1 | 0

28-11-2019 20:33  

Отключить всю рекламу на сайте

25-02-2018 15:58 Невский: Проверка на прочность Скачать торрент  

pb.wtf



26-02-2018 07:47 Невский: Проверка на прочность Скачать торрент  

pb.wtf



    Дорогой пользователь! Огромная просьба, поблагодарите релизера, оцените раздачу и оставьте свои комментарий, если Вы скачали Невский: Проверка на прочность через торрент бесплатно! Внесите свою лепту в развитие PiratBit!
    Комментировать посты могут только пользователи прошедшие не сложную регистрацию
    Показать сообщения:    

    Невский: Проверка на прочность через торрент
    Скачать бесплатно Невский: Проверка на прочность
    Невский: Проверка на прочность скачать торрент
    Невский: Проверка на прочность смотреть онлайн
    Cкачать фильм Невский: Проверка на прочность бесплатно
    Невский: Проверка на прочность скачать торрент в хорошем качестве
    Невский: Проверка на прочность смотреть онлайн бесплатно в хорошем качестве


    Вы не можете начинать темы
    Вы не можете отвечать на сообщения
    Вы не можете редактировать свои сообщения
    Вы не можете удалять свои сообщения
    Вы не можете голосовать в опросах
    Вы не можете прикреплять файлы к сообщениям
    Вы можете скачивать файлы