Ссылка на приватное зеркало нашего сайта всего за 1$. Внимание количество ограничено!!!

2 сезон

iTunes

1 сезон

1

2 сезон

2 сезон

iTunes

1 сезон

RePack

30

Ultimate

ВАЖНО

ИГРА 18+

pack

RePack

MK11
pack

Забери бонус

RePack

jed

!!Акция!!

Alien_Rage

RePack

fifa19

RePack

Assassins Creed: Odyssey

RePack

NEED FOR SPEED™ PAYBACK

4 сезон

9 сезон

Бесстыжие 9 сезон

Все сериалы

все сериалы на PB.wtf

RePack

FAR CRY 5
  

Запах дождя и молнии / The Scent of Rain & Lightning (Блейк Роббинс) [2017, драма, детектив, вестерн, WEB-DL 720p] MVO [HDrezka Studio] pb.wtf

Запах дождя и молнии через торрент pb.wtf

Размер: 2.57 GB | Добавлен: 2 года 9 мес. назад | Торрент скачан:55 раз
Скачать  

25-02-2018 17:44 Запах дождя и молнии Скачать торрент  

Запах дождя и молнии / The Scent of Rain & LightningГод выпуска: 2017
Страна: США
Жанр: драма, детектив, вестерн
Продолжительность: 01:42:36
Перевод: Профессиональный (многоголосый) - HDrezka Studio
Субтитры: Английские

Режиссер: Блейк Роббинс

rating

В ролях:

Джастин Чатвин, Майка Монро, Мэгги Грэйс, Бонни Беделиа, Марк Веббер, Уилл Пэттон, Логан Миллер, Аарон Пул, Брэд Картер, Блейк Роббинс

Описание:

Когда молодая женщина узнает, что убийцу ее родителей выпустили из тюрьмы, она сталкивается с тем, что ей снова приходится залечивать старые раны. В этом процессе она познает разрушительную силу ненависти и понимает истинную цену семейных секретов.

Качество: WEB-DL 720p
Формат: MKV

Видео: MPEG-4 AVC, 2932 kb/s 1280x534
Аудио#1: Русский (AC3, 2 ch, 192 Кбит/с)
Аудио#2: английский (AC3, 6 ch, 384 Кбит/с)
скриншот  скриншот  скриншот  

Общее
Уникальный идентификатор : 183626579843364254982302927840704144060 (0x8A25315FF74B7D33BA428CDEC21722BC)
Полное имя : D:\The.Scent.of.Rain.and.Lightning.2017.MVO.WEB-DL.720p.mkv
Формат : Matroska
Версия формата : Version 2
Размер файла : 2,57 Гбайт
Продолжительность : 1 ч. 42 м.
Общий поток : 3580 Кбит/сек
Дата кодирования : UTC 2018-02-25 17:05:37
Программа кодирования : mkvmerge v7.8.0 ('River Man') 32bit built on Apr 3 2015 12:11:22
Библиотека кодирования : libebml v1.3.1 + libmatroska v1.4.2

Видео
Идентификатор : 1
Формат : AVC
Формат/Информация : Advanced Video Codec
Профиль формата : Main@L4
Параметр CABAC формата : Да
Параметр ReFrames формата : 4 кадра
Идентификатор кодека : V_MPEG4/ISO/AVC
Продолжительность : 1 ч. 42 м.
Битрейт : 2932 Кбит/сек
Ширина : 1280 пикселей
Высота : 534 пикселя
Соотношение сторон : 2,40:1
Соотношение сторон в оригинале : 2,40:1
Режим частоты кадров : Постоянный
Частота кадров : 23,976 кадра/сек
Цветовое пространство : YUV
Субдискретизация насыщенности : 4:2:0
Битовая глубина : 8 бит
Тип развёртки : Прогрессивная
Бит/(Пиксели*Кадры) : 0.179
Размер потока : 2,11 Гбайт (82%)
Язык : English
Default : Да
Forced : Нет
Цветовой диапазон : Limited
Основные цвета : BT.709
Характеристики трансфера : BT.709
Коэффициенты матрицы : BT.709

Аудио #1
Идентификатор : 2
Формат : AC-3
Формат/Информация : Audio Coding 3
Профиль формата : Dolby Digital
Расширение режима : CM (complete main)
Параметр Endianness формата : Big
Идентификатор кодека : A_AC3
Продолжительность : 1 ч. 42 м.
Вид битрейта : Постоянный
Битрейт : 192 Кбит/сек
Каналы : 2 канала
Расположение каналов : Front: L R
Частота : 48,0 КГц
Частота кадров : 31,250 кадров/сек (1536 spf)
Метод сжатия : С потерями
Задержка видео : -200 мс.
Размер потока : 141 Мбайт (5%)
Заголовок : MVO
Язык : Russian
Default : Да
Forced : Нет

Аудио #2
Идентификатор : 3
Формат : AC-3
Формат/Информация : Audio Coding 3
Расширение режима : CM (complete main)
Параметр Endianness формата : Big
Идентификатор кодека : A_AC3
Продолжительность : 1 ч. 42 м.
Вид битрейта : Постоянный
Битрейт : 384 Кбит/сек
Каналы : 6 каналов
Расположение каналов : Front: L C R, Side: L R, LFE
Частота : 48,0 КГц
Частота кадров : 31,250 кадров/сек (1536 spf)
Метод сжатия : С потерями
Задержка видео : -200 мс.
Размер потока : 283 Мбайт (11%)
Язык : English
Default : Нет
Forced : Нет

Текст
Идентификатор : 4
Формат : UTF-8
Идентификатор кодека : S_TEXT/UTF8
Идентификатор кодека/Информация : UTF-8 Plain Text
Язык : English
Default : Нет
Forced : Нет

Меню
00:00:00.000 : en:1
00:08:51.000 : en:2
00:15:19.000 : en:3
00:24:38.000 : en:4
00:35:31.000 : en:5
00:45:24.000 : en:6
00:56:18.000 : en:7
01:07:02.000 : en:8
01:21:10.000 : en:9
01:27:08.000 : en:10
01:38:10.000 : en:11

pb.wtf
Kbober100 писал(а):

Без рекламы!



Скачать Запах дождя и молнии через торрент http://img12.lostpic.net/2018/02/18/40094284eebf263406f338038173e5d0.jpg Скачать фильм Запах дождя и молнии через торрент бесплантно в хорошем качестве Описание: Когда молодая женщина узнает, что убийцу ее родителей выпустили из тюрьмы, она сталкивается с тем, что ей снова приходится ... 8.2 10 5
Торрент: Зарегистрирован [2018-02-25 17:44] · скачан: 55 раз
Статус: T временная
Размер: 2.57 GB
Как cкачать? Как скачать Запах дождя и молнии через торрент | qTorrent



Последний раз редактировалось: bober100 (2018-02-25 18:25), всего редактировалось 1 раз

28-11-2019 20:33  

Отключить всю рекламу на сайте

25-02-2018 18:01 Запах дождя и молнии Скачать торрент  

Все жду новый вестерн годный..а их нет и нет)) И этот "шедевр" глядя только на одни скрины, уже понятно качество данного фильма.
Автору за релиз спс.pb.wtf



    Дорогой пользователь! Огромная просьба, поблагодарите релизера, оцените раздачу и оставьте свои комментарий, если Вы скачали Запах дождя и молнии через торрент бесплатно! Внесите свою лепту в развитие PiratBit!
    Комментировать посты могут только пользователи прошедшие не сложную регистрацию
    Показать сообщения:    

    Запах дождя и молнии через торрент
    Скачать бесплатно Запах дождя и молнии
    Запах дождя и молнии скачать торрент
    Запах дождя и молнии смотреть онлайн
    Cкачать фильм Запах дождя и молнии бесплатно
    Запах дождя и молнии скачать торрент в хорошем качестве
    Запах дождя и молнии смотреть онлайн бесплатно в хорошем качестве


    Вы не можете начинать темы
    Вы не можете отвечать на сообщения
    Вы не можете редактировать свои сообщения
    Вы не можете удалять свои сообщения
    Вы не можете голосовать в опросах
    Вы не можете прикреплять файлы к сообщениям
    Вы можете скачивать файлы