Всегда рабочее зеркало без VPN и Proxy просто перед .vidak.icu напиши любое слово или цифру, Пример http://v6d1.vidak.icu

MVO

MVO

1 сезон

1

1 сезон

iTunes

1 сезон

13

1 сезон

Deluxe

pack

Рекомендуем

Repack

30

ВАЖНО

RePack

MK11

RePack

jed

RePack

fifa19

RePack

RDR2

RePack

NEED FOR SPEED™ PAYBACK

Кинопоиск HD

6 сезон

 Острые козырьки 6 сезон

Все сериалы

все сериалы на PB.wtf

RePack

FAR CRY 5
  
Magnet ссылка

Отмель / The Shallows (Жаума Кольет-Серра) [2016, ужасы, триллер, драма, UHD BDRemux 2160p] DUB + AVO pb.wtf

Отмель через торрент pb.wtf

Размер: 42.53 GB | Добавлен: 4 года 5 мес. назад | Торрент скачан:65 раз
Смотреть онлайн Отмель | Скачать    Ребята, помогите собрать деньги на оплату серверов!!!

26-02-2018 04:18 Отмель Скачать торрент  

Отмель / The Shallows

Год выпуска: 2016
Страна: США, Австралия, Испания
Жанр: ужасы, триллер, драма
Продолжительность: 01:26:16
Перевод: Дублированный [Blu-ray EUR], авторский [В. Дохалов]
Субтитры: Русские (форсированные, полные), английские (Full, SDH)
Режиссер: Жаума Кольет-Серра
В ролях:

Блейк Лайвли, Оскар Хаэнада, Анджело Джосу Лозаньо Корзо (Surfer), Joseph Salas (Surfer), Бретт Каллен, Седона Ледже, Пабло Кальва, Диего Эспехель, Джанелл Бэйли, Ава Дин (Young Nancy), Челси Муди, Салли Сигалл
Описание:
Бескрайний океан, безлюдный пляж и идеальная погода для серфингистов в поисках хорошей волны. Казалось бы, ничто не предвещает беды для очаровательной любительницы серфинга в одиночку. Разве что свидание тет-а-тет с гигантской акулой, которая загонит спортсменку на песчаную отмель и не отступит до тех пор, пока не получит своё.
Рейтинг:

MPAA: PG-13 - Детям до 13 лет просмотр не желателен
Качество: UHD BDRemux 2160p
Формат: MKV
Видео: MPEG-H HEVC HDR, 60.8 Mбит/с, 3840x2160, 23.976 кадр/с
Аудио: Русский | AC3 | 6 ch | 640 Кбит/с | Дублированный (Blu-ray EUR)
Аудио: Русский | DTS-HD MA | 6 ch | 3840 Кбит/с | Авторский (В. Дохалов)
Аудио: Английский | TrueHD+Atmos | 8 ch | 4499 Кбит/с
Аудио: Английский | AC3 | 6 ch | 640 Кбит/с
Навигация по главам: есть
General
Unique ID : 105385551215006224437678623792371939412 (0x4F4884D5424B519433E99E1048293854)
Complete name : D:uTorrentOtmel.2016.2160p.HEVC.UHD.HDR.MediaClub.mkv
Format : Matroska
Format version : Version 4 / Version 2
File size : 42.5 GiB
Duration : 1 h 26 min
Overall bit rate mode : Variable
Overall bit rate : 70.6 Mb/s
Encoded date : UTC 2018-02-23 07:54:59
Writing application : mkvmerge v19.0.0 ('Brave Captain') 64-bit
Writing library : libebml v1.3.5 + libmatroska v1.4.8
Cover : Yes
Attachments : cover.jpg

Video
ID : 1
Format : HEVC
Format/Info : High Efficiency Video Coding
Format profile : Main [email protected]@High
Codec ID : V_MPEGH/ISO/HEVC
Duration : 1 h 26 min
Bit rate : 60.8 Mb/s
Width : 3 840 pixels
Height : 2 160 pixels
Display aspect ratio : 16:9
Frame rate mode : Constant
Frame rate : 23.976 (24000/1001) FPS
Color space : YUV
Chroma subsampling : 4:2:0 (Type 2)
Bit depth : 10 bits
Bits/(Pixel*Frame) : 0.306
Stream size : 36.7 GiB (86%)
Title : BDRemux, 20160p, HEVC, UDH, HDR by Silverok
Default : Yes
Forced : No
Color range : Limited
Color primaries : BT.2020
Transfer characteristics : PQ
Matrix coefficients : BT.2020 non-constant
Mastering display color primaries : Display P3
Mastering display luminance : min: 0.0050 cd/m2, max: 4000 cd/m2
Maximum Content Light Level : 1933 cd/m2
Maximum Frame-Average Light Level : 709 cd/m2

Audio #1
ID : 2
Format : AC-3
Format/Info : Audio Coding 3
Codec ID : A_AC3
Duration : 1 h 26 min
Bit rate mode : Constant
Bit rate : 640 kb/s
Channel(s) : 6 channels
Channel positions : Front: L C R, Side: L R, LFE
Sampling rate : 48.0 kHz
Frame rate : 31.250 FPS (1536 SPF)
Bit depth : 16 bits
Compression mode : Lossy
Stream size : 395 MiB (1%)
Title : Дублированный (Blu-ray EUR)
Language : Russian
Service kind : Complete Main
Default : Yes
Forced : No

Audio #2
ID : 3
Format : DTS
Format/Info : Digital Theater Systems
Format profile : MA / Core
Codec ID : A_DTS
Duration : 1 h 26 min
Bit rate mode : Variable / Constant
Bit rate : 3 840 kb/s / 1 509 kb/s
Channel(s) : 6 channels
Channel positions : Front: L C R, Side: L R, LFE
Sampling rate : 48.0 kHz
Frame rate : 93.750 FPS (512 SPF)
Bit depth : 24 bits
Compression mode : Lossless / Lossy
Stream size : 2.35 GiB (6%)
Title : Авторский (В. Дохалов)
Language : Russian
Default : No
Forced : No

Audio #3
ID : 4
Format : TrueHD
Format profile : TrueHD+Atmos / TrueHD
Codec ID : A_TRUEHD
Duration : 1 h 26 min
Bit rate mode : Variable
Bit rate : 4 499 kb/s
Maximum bit rate : 7 656 kb/s
Channel(s) : Object Based / 8 channels
Channel positions : Object Based / Front: L C R, Side: L R, Back: L R, LFE
Sampling rate : / 48.0 kHz
Frame rate : 1 200.000 FPS (40 SPF)
Compression mode : Lossless
Stream size : 2.71 GiB (6%)
Language : English
Default : No
Forced : No

Audio #4
ID : 5
Format : AC-3
Format/Info : Audio Coding 3
Codec ID : A_AC3
Duration : 1 h 26 min
Bit rate mode : Constant
Bit rate : 640 kb/s
Channel(s) : 6 channels
Channel positions : Front: L C R, Side: L R, LFE
Sampling rate : 48.0 kHz
Frame rate : 31.250 FPS (1536 SPF)
Bit depth : 16 bits
Compression mode : Lossy
Stream size : 395 MiB (1%)
Language : English
Service kind : Complete Main
Default : No
Forced : No

Text #1
ID : 6
Format : UTF-8
Codec ID : S_TEXT/UTF8
Codec ID/Info : UTF-8 Plain Text
Duration : 1 h 19 min
Bit rate : 1 b/s
Count of elements : 36
Stream size : 1.00 KiB (0%)
Title : Forced
Language : Russian
Default : Yes
Forced : Yes

Text #2
ID : 7
Format : UTF-8
Codec ID : S_TEXT/UTF8
Codec ID/Info : UTF-8 Plain Text
Duration : 1 h 19 min
Bit rate : 27 b/s
Count of elements : 460
Stream size : 15.9 KiB (0%)
Title : Full
Language : Russian
Default : No
Forced : No

Text #3
ID : 8
Format : UTF-8
Codec ID : S_TEXT/UTF8
Codec ID/Info : UTF-8 Plain Text
Duration : 1 h 17 min
Bit rate : 18 b/s
Count of elements : 442
Stream size : 10.3 KiB (0%)
Title : Full
Language : English
Default : No
Forced : No

Text #4
ID : 9
Format : UTF-8
Codec ID : S_TEXT/UTF8
Codec ID/Info : UTF-8 Plain Text
Duration : 1 h 25 min
Bit rate : 27 b/s
Count of elements : 895
Stream size : 17.3 KiB (0%)
Title : Full (SDH)
Language : English
Default : No
Forced : No

Menu
00:00:00.000 : en:00:00:00.000
00:08:09.698 : en:00:08:09.698
00:15:10.409 : en:00:15:10.409
00:20:31.939 : en:00:20:31.939
00:25:45.878 : en:00:25:45.878
00:30:07.055 : en:00:30:07.055
00:36:04.120 : en:00:36:04.120
00:40:39.687 : en:00:40:39.687
00:45:41.614 : en:00:45:41.614
00:49:32.219 : en:00:49:32.219
00:55:57.980 : en:00:55:57.980
01:01:21.511 : en:01:01:21.511
01:06:22.562 : en:01:06:22.562
01:09:57.443 : en:01:09:57.443
01:13:38.706 : en:01:13:38.706
01:19:01.487 : en:01:19:01.487
pb.wtf



Скачать Отмель через торрент http://i100.fastpic.ru/big/2018/0226/fb/a443eebc5c7eade9ab991342c48866fb.png Скачать, смотреть онлайн Отмель бесплантно в хорошем качестве Описание: Бескрайний океан, безлюдный пляж и идеальная погода для серфингистов в поисках хорошей волны. Казалось бы, ничто не предвещает ... 8.1 10 11
Info! Золотая раздача, скачанное не засчитывается.
Торрент: Зарегистрирован [2018-02-26 04:18] · скачан: 65 раз
Статус: √ проверено
Размер: 42.53 GB
Как cкачать? Как скачать Отмель через торрент | UTorrent

% Раздел Тема Автор DL S | L
Фильмы [HD 720p, 1080p] (Хороший звук DUB, MVO) [ 4.01 GB ] Отмель / The Shallows [2016 BDRip 1080p] 2x[Dub] + [AVO] killermax2013 Скачать
1 | 0

28-11-2019 20:33  

Отключить вcю реклaмy на сайте

27-02-2018 06:21 Отмель Скачать торрент  

Неплохой фильм смотрится на одном дыхании! Всем советуюpb.wtf



    Дорогой пользователь! Огромная просьба, поблагодарите релизера, оцените раздачу и оставьте свои комментарий, если Вы скачали Отмель через торрент бесплатно!
    Комментировать посты могут только пользователи прошедшие не сложную регистрацию
    Показать сообщения:    

    Отмель через торрент
    Скачать бесплатно Отмель
    Отмель скачать торрент
    Отмель смотреть онлайн
    Cкачать фильм Отмель бесплатно
    Отмель скачать торрент в хорошем качестве
    Отмель смотреть онлайн бесплатно в хорошем качестве


    Вы не можете начинать темы
    Вы не можете отвечать на сообщения
    Вы не можете редактировать свои сообщения
    Вы не можете удалять свои сообщения
    Вы не можете голосовать в опросах
    Вы не можете прикреплять файлы к сообщениям
    Вы можете скачивать файлы