Ссылка на приватное зеркало нашего сайта всего за 1$. Внимание количество ограничено!!!

2 сезон

iTunes

1 сезон

1

2 сезон

2 сезон

iTunes

1 сезон

RePack

30

Ultimate

ВАЖНО

ИГРА 18+

pack

RePack

MK11
pack

Забери бонус

RePack

jed

!!Акция!!

Alien_Rage

RePack

fifa19

RePack

Assassins Creed: Odyssey

RePack

NEED FOR SPEED™ PAYBACK

4 сезон

9 сезон

Бесстыжие 9 сезон

Все сериалы

все сериалы на PB.wtf

RePack

FAR CRY 5
  

Тик / The Tick / Сезон: 1 / Серии: 1-12 из 12 (Уолли Пфистер) [2017, Комедия, пародия, фантастика, WEBRip 1080p] MVO [BaibaKo] pb.wtf

Тик через торрент pb.wtf

Размер: 15.27 GB | Добавлен: 2 года 8 мес. назад | Торрент скачан:13 раз
Скачать  

26-02-2018 08:31 Тик Скачать торрент  

Тик / The TickГод выпуска: 2017
Страна: США
Жанр: Комедия, пародия, фантастика
Продолжительность: ~ 00:30:00
Перевод: Профессиональный (многоголосый) -
Субтитры: отсутствуют

Режиссер: Уолли Пфистер

rating

В ролях:

Питер Серафинович, Гриффин Ньюман, Вэлори Керри, Брендан Хайнс, Джеки Эрл Хейли

Описание:

Тик — борец с преступностью. Он является самым честным супергероем среди своих собратьев. Он прыгает по крышам небоскребов. В нем сила природы, он бесстрашен, не признает поражений, его не возможно остановить (в большинстве случаев), он не сокрушим, полон достоинства и обаяния, и у него золотое сердце.

Качество: WEBRip 1080p
Формат: MKV

Видео: MPEG-4 AVC, ~ 5600 Кбит/с, 1920x1080
Аудио#1: Русский (AC3, 6 ch, 640 Кбит/с)
Аудио#2: английский (AC3, 6 ch, 640 Кбит/с)

Общее
Уникальный идентификатор : 204603451244908371463475021822420931195 (0x99ED30FC2A9AD6E9B7354C62F5B1527B)
Полное имя : D:\The.Tick.s01.HD1080p.WEBRip.Rus.Eng.BaibaKo.tv\The.Tick.s01e01.HD1080p.WEBRip.Rus.Eng.BaibaKo.tv.mkv
Формат : Matroska
Версия формата : Version 4 / Version 2
Размер файла : 1,42 Гбайт
Продолжительность : 29 м. 28 с.
Режим общего битрейта : Переменный
Общий поток : 6890 Кбит/сек
Дата кодирования : UTC 2016-09-01 15:40:52
Программа кодирования : mkvmerge v9.3.1 ('Mask Machine') 64bit
Библиотека кодирования : libebml v1.3.4 + libmatroska v1.4.5

Видео
Идентификатор : 1
Формат : AVC
Формат/Информация : Advanced Video Codec
Профиль формата : High@L4
Параметр CABAC формата : Да
Параметр ReFrames формата : 4 кадра
Идентификатор кодека : V_MPEG4/ISO/AVC
Продолжительность : 29 м. 28 с.
Вид битрейта : Переменный
Битрейт : 5609 Кбит/сек
Максимальный битрейт : 15,0 Мбит/сек
Ширина : 1920 пикселей
Высота : 1080 пикселей
Соотношение сторон : 16:9
Режим частоты кадров : Постоянный
Частота кадров : 23,976 (24000/1001) кадра/сек
Цветовое пространство : YUV
Субдискретизация насыщенности : 4:2:0
Битовая глубина : 8 бит
Тип развёртки : Прогрессивная
Бит/(Пиксели*Кадры) : 0.113
Размер потока : 1,15 Гбайт (81%)
Default : Да
Forced : Нет
Цветовой диапазон : Limited
Основные цвета : BT.709
Характеристики трансфера : BT.709
Коэффициенты матрицы : BT.709

Аудио #1
Идентификатор : 2
Формат : AC-3
Формат/Информация : Audio Coding 3
Расширение режима : CM (complete main)
Параметр Endianness формата : Big
Идентификатор кодека : A_AC3
Продолжительность : 29 м. 28 с.
Вид битрейта : Постоянный
Битрейт : 640 Кбит/сек
Каналы : 6 каналов
Расположение каналов : Front: L C R, Side: L R, LFE
Частота : 48,0 КГц
Частота кадров : 31,250 кадров/сек (1536 spf)
Метод сжатия : С потерями
Задержка видео : -200 мс.
Размер потока : 135 Мбайт (9%)
Язык : Russian
Default : Да
Forced : Нет

Аудио #2
Идентификатор : 3
Формат : E-AC-3
Формат/Информация : Audio Coding 3
Параметр Endianness формата : Big
Идентификатор кодека : A_EAC3
Продолжительность : 29 м. 28 с.
Вид битрейта : Постоянный
Битрейт : 640 Кбит/сек
Каналы : 6 каналов
Расположение каналов : Front: L C R, Side: L R, LFE
Частота : 48,0 КГц
Частота кадров : 187,500 кадров/сек (256 spf)
Метод сжатия : С потерями
Размер потока : 135 Мбайт (9%)
Язык : English
Default : Нет
Forced : Нет

pb.wtf



Скачать Тик через торрент http://img12.lostpic.net/2018/02/26/dbdcc4a96c77ad993f098f0aa901cf20.jpg Скачать фильм Тик через торрент бесплантно в хорошем качестве Описание: Тик — борец с преступностью. Он является самым честным супергероем среди своих собратьев. Он прыгает по крышам небоскребов. В нем ... 10 10 2
Торрент: Зарегистрирован [2018-02-26 08:31] · скачан: 13 раз
Статус: √ проверено
Размер: 15.27 GB
Как cкачать? Как скачать Тик через торрент | qTorrent

% Раздел Тема Автор DL S | L
Зарубежные сериалы [ 6.59 GB ] Тик / The Tick / Сезон: 1 / Серии: 1-12 из 12 [2017 WEBRip 720p] MVO [TVShows] bober100 Скачать
1 | 0
Зарубежные сериалы [ 13.61 GB ] Тик / The Tick / Сезон: 1 / Серии: 1-12 из 12 [2017 WEB-DL 1080p] MVO [TVShows] bober100 Скачать
1 | 0
Зарубежные сериалы [ 6.9 GB ] Тик / The Tick / Сезон: 1 / Серии: 1-12 из 12 [2017 пародия WEBRip 720p] MVO [NewStudio] bober100 Скачать
1 | 0
Зарубежные сериалы [ 4.11 GB ] Тик / The Tick / Сезон: 1 / Серии: 1-12 из 12 [2017 пародия WEBRip] MVO [NewStudio] bober100 Скачать
1 | 0
Зарубежные сериалы [ 4.16 GB ] Тик / The Tick / Сезон: 1 / Серии: 1-12 из 12 [2017 пародия WEBRip] MVO [BaibaKo] bober100 Скачать
1 | 0
Зарубежные сериалы [ 9.79 GB ] Тик / The Tick / Сезон: 1 / Серии: 1-12 из 12 [2017 пародия WEBRip 720p] MVO [BaibaKo] bober100 Скачать
1 | 0
Зарубежные сериалы [ 5.26 GB ] Тик-герой / The Tick / Сезон: 1 / Серии 1-12 из 12 [2016 WEBRip-AVC] MVO [BaibaKo] GEKADOL Скачать
1 | 0

28-11-2019 20:33  

Отключить всю рекламу на сайте

    Дорогой пользователь! Огромная просьба, поблагодарите релизера, оцените раздачу и оставьте свои комментарий, если Вы скачали Тик через торрент бесплатно! Внесите свою лепту в развитие PiratBit!
    Комментировать посты могут только пользователи прошедшие не сложную регистрацию
    Показать сообщения:    

    Тик через торрент
    Скачать бесплатно Тик
    Тик скачать торрент
    Тик смотреть онлайн
    Cкачать фильм Тик бесплатно
    Тик скачать торрент в хорошем качестве
    Тик смотреть онлайн бесплатно в хорошем качестве


    Вы не можете начинать темы
    Вы не можете отвечать на сообщения
    Вы не можете редактировать свои сообщения
    Вы не можете удалять свои сообщения
    Вы не можете голосовать в опросах
    Вы не можете прикреплять файлы к сообщениям
    Вы можете скачивать файлы